WWE NXT UK 2020 02 06 1080p WEBRIP x264-WH [4.8 GB]

WWE NXT UK 2020 02 06 1080p WEBRIP x264-WH [4.8 GB]

WWE NXT UK 2020 02 06 1080p WEBRIP x264-WH [4.8 GB]

General
Complete name : WWE.NXT.UK.2020.02.06.1080p.WEBRIP.x264-WH.mp4
Format : MPEG-4
Codec ID : isom
File size : 4.85 GiB
Duration : 57mn 7s
Overall bit rate : 12.2 Mbps

Video
Codec ID : avc1
Duration : 57mn 7s
Duration_LastFrame : -1ms
Bit rate mode : Variable
Bit rate : 12.0 Mbps
Width : 1 920 pixels
Height : 1 080 pixels
Display aspect ratio : 16:9
Frame rate mode : Constant
Frame rate : 29.970 fps
Color space : YUV
Chroma subsampling : 4:2:0
Bit depth : 8 bits
Scan type : Progressive
Bits/(Pixel*Frame) : 0.193
Stream size : 4.79 GiB (99%)
Writing library : x264 core 142

Audio
ID : 2
Format : AAC
Codec ID : 40
Duration : 57mn 7s
Bit rate mode : Variable
Bit rate : 152 Kbps
Maximum bit rate : 224 Kbps
Channel(s) : 2 channels
Channel positions : Front: L R
Sampling rate : 44.1 KHz
Compression mode : Lossy
Stream size : 62.1 MiB (1%)

 66 total views,  1 views today

WWE NXT UK 2020 02 06 1080p WEBRIP x264-WH [4.8 GB]

WH : Source OF Wrestling Releases / Home OF WH Releases

Buy Premium or Renew From WH Links to Keep it Alive

About PH.M.H

[Wrestling Best Uploader]

View all posts by PH.M.H →

One Comment on “WWE NXT UK 2020 02 06 1080p WEBRIP x264-WH [4.8 GB]”

Leave a Reply

Your email address will not be published. Required fields are marked *