WWE NXT UK 2019 06 12 WEB h264-HEEL

WWE NXT UK 2019 06 12 WEB h264-HEEL

WWE NXT UK 2019 06 12 WEB h264-HEEL

WWE NXT UK 2019 06 12 WEB h264-HEEL

Imperium get some assistance during a main-event battle against British 
Strong Style. Plus, Ilja Dragunov, Xia Brookside and more!

Title: WWE.NXT.UK.2019.06.12.WEB.h264-HEEL
Released: 2019.06.12
Source: WWE Network
Resolution: 896 x 504 @ 29.970 FPS
Video: H.264 @ 1800 kbps
Audio: AAC @ 96 kbps
Size: 670 MB
Runtime: 51mn 55sec

General
Complete name :WWE.NXT.UK.2019.06.12.WEB.h264-HEEL.mp4
Format : MPEG-4
Format profile : Base Media
Codec ID : isom (isom/iso2/avc1/mp41)
File size : 670 MiB
Duration : 51 min 55 s
Overall bit rate mode : Variable
Overall bit rate : 1 804 kb/s
Writing application : Lavf58.27.103

Video
ID : 1
Format : AVC
Format/Info : Advanced Video Codec
Format profile : [email protected]
Format settings : CABAC / 4 Ref Frames
Format settings, CABAC : Yes
Format settings, Reference : 4 frames
Codec ID : avc1
Codec ID/Info : Advanced Video Coding
Duration : 51 min 55 s
Bit rate mode : Constant
Bit rate : 1 704 kb/s
Width : 896 pixels
Height : 504 pixels
Display aspect ratio : 16:9
Frame rate mode : Constant
Frame rate : 29.970 (30000/1001) FPS
Color space : YUV
Chroma subsampling : 4:2:0
Bit depth : 8 bits
Scan type : Progressive
Bits/(Pixel*Frame) : 0.126
Stream size : 633 MiB (94%)
Codec configuration box : avcC

Audio
ID : 2
Format : AAC LC
Format/Info : Advanced Audio Codec Low Complexity
Codec ID : mp4a-40-2
Duration : 51 min 55 s
Bit rate mode : Variable
Bit rate : 93.5 kb/s
Maximum bit rate : 97.9 kb/s
Channel(s) : 2 channels
Channel layout : L R
Sampling rate : 48.0 kHz
Frame rate : 46.875 FPS (1024 SPF)
Compression mode : Lossy
Stream size : 34.7 MiB (5%)
Language : English
Default : Yes
Alternate group : 1

Text
ID : 1-CC1
Format : EIA-608
Muxing mode : SCTE 128 / DTVCC Transport
Muxing mode, more info : Muxed in Video #1
Duration : 51 min 55 s
Bit rate mode : Constant
Stream size : 0.00 Byte (0%)
Encoded stream size : 0.00 Byte (0%)
CaptionServiceName : CC1

WWE NXT UK 2019 06 12 WEB h264-HEEL

1fichier.com/?xhu4h0v7dn1t5k7pgyls
anonfile.com/k4Pac2vcnf
bayfiles.com/b0Qac1v7nd
bitster.cz/file/3adb1b
ddl.to/dvq1xue039ym
dl.free.fr/bae7Nn4sT
www.filefactory.com/file/55ysd4erez61
filerio.in/w69kj9cxxcok
multiup.org/download/25dc06fd4194e8cd3258063ff9b2dfdf
nitroflare.com/view/F51EBDA1E93DFD1
rg.to/file/de76fafcc2802826af49d63e0d7f5f2e
turbobit.net/6xvxe0j40twk.html
uploadgig.com/file/download/f833551a99d98fEb

 89 total views,  1 views today

WWE NXT UK 2019 06 12 WEB h264-HEEL

WH : Source OF Wrestling Releases / Home OF WH Releases

Buy Premium or Renew From WH Links to Keep it Alive

About PH.M.H

[Wrestling Best Uploader]

View all posts by PH.M.H →

Leave a Reply

Your email address will not be published. Required fields are marked *