WWE NXT UK 2019 06 12 720p WEB h264-HEEL

WWE NXT UK 2019 06 12 720p WEB h264-HEEL

WWE NXT UK 2019 06 12 720p WEB h264-HEEL

WWE NXT UK 2019 06 12 720p WEB h264-HEEL

Imperium get some assistance during a main-event battle against British Strong Style. Plus, Ilja Dragunov, Xia Brookside and more!

Title: WWE.NXT.UK.2019.06.12.720p.WEB.h264-HEEL
Released: 2019.06.12
Source: WWE Network
Resolution: 1280 x 720 @ 29.970 FPS
Video: H.264 @ 4500 kbps
Audio: AAC @ 128 kbps
Size: 1.63 GB
Runtime: 51mn 55sec

General
Complete name : WWE.NXT.UK.2019.06.12.720p.WEB.h264-HEEL.mp4
Format : MPEG-4
Format profile : Base Media
Codec ID : isom (isom/iso2/avc1/mp41)
File size : 1.63 GiB
Duration : 51 min 55 s
Overall bit rate mode : Constant
Overall bit rate : 4 504 kb/s
Writing application : Lavf58.27.103

Video
ID : 1
Format : AVC
Format/Info : Advanced Video Codec
Format profile : [email protected]
Format settings : CABAC / 4 Ref Frames
Format settings, CABAC : Yes
Format settings, Reference : 4 frames
Codec ID : avc1
Codec ID/Info : Advanced Video Coding
Duration : 51 min 55 s
Bit rate mode : Constant
Bit rate : 4 372 kb/s
Width : 1 280 pixels
Height : 720 pixels
Display aspect ratio : 16:9
Frame rate mode : Constant
Frame rate : 29.970 (30000/1001) FPS
Color space : YUV
Chroma subsampling : 4:2:0
Bit depth : 8 bits
Scan type : Progressive
Bits/(Pixel*Frame) : 0.158
Stream size : 1.59 GiB (97%)
Codec configuration box : avcC

Audio
ID : 2
Format : AAC LC
Format/Info : Advanced Audio Codec Low Complexity
Codec ID : mp4a-40-2
Duration : 51 min 55 s
Bit rate mode : Constant
Bit rate : 125 kb/s
Channel(s) : 2 channels
Channel layout : L R
Sampling rate : 48.0 kHz
Frame rate : 46.875 FPS (1024 SPF)
Compression mode : Lossy
Stream size : 46.6 MiB (3%)
Language : English
Default : Yes
Alternate group : 1

Text
ID : 1-CC1
Format : EIA-608
Muxing mode : SCTE 128 / DTVCC Transport
Muxing mode, more info : Muxed in Video #1
Duration : 51 min 55 s
Bit rate mode : Constant
Stream size : 0.00 Byte (0%)
Encoded stream size : 0.00 Byte (0%)
CaptionServiceName : CC1

WWE NXT UK 2019 06 12 720p WEB h264-HEEL

1fichier.com/?fge4meym5l4cf4451tle
anonfile.com/20P8cev8nb
bayfiles.com/qfQac7vbnc
bitster.cz/file/e3321a
ddl.to/l6px8s6dwaqe
dl.free.fr/iQzAXiutZ
file.bz/y9P5cfvbnf
www.filefactory.com/file/3yrqzrr0pf75
filerio.in/z9nfkc6swohk
multiup.org/download/a704cf915c77d6244f2d198ec110fb2f
rg.to/file/d8daddfbbe58b660c023278143a9e331
turbobit.net/u7biegd3fdk6.html
uploadgig.com/file/download/33a81d8841a45dC2

 80 total views,  1 views today

WWE NXT UK 2019 06 12 720p WEB h264-HEEL

WH : Source OF Wrestling Releases / Home OF WH Releases

Buy Premium or Renew From WH Links to Keep it Alive

About PH.M.H

[Wrestling Best Uploader]

View all posts by PH.M.H →

Leave a Reply

Your email address will not be published. Required fields are marked *