WWE NXT 2020 01 22 540p WEBRIP x264-WH

Spread the love

WWE NXT 2020 01 22 540p WEBRIP x264-WH

WWE NXT 2020 01 22 540p WEBRIP x264-WH

General
Complete name : WWE.NXT.2020.01.22.540p.WEBRIP.x264-WH.mp4
Format : MPEG-4
Format profile : Base Media
Codec ID : isom
File size : 2.30 GiB
Duration : 1h 43mn
Overall bit rate : 3 167 Kbps
Encoded date : UTC 2019-09-26 20:46:25
Tagged date : UTC 2019-09-26 20:46:25
Writing application : Lavf56.15.102

Video
ID : 1
Codec ID : avc1
Codec ID/Info : Advanced Video Coding
Duration : 1h 43mn
Bit rate mode : Variable
Bit rate : 3 000 Kbps
Width : 960 pixels
Height : 540 pixels
Display aspect ratio : 16:9
Frame rate mode : Constant
Frame rate : 60.000 fps
Color space : YUV
Chroma subsampling : 4:2:0
Bit depth : 8 bits
Scan type : Progressive
Bits/(Pixel*Frame) : 0.096
Stream size : 2.18 GiB (95%)
Writing library : x264 core 142
Language : English

Audio
ID : 2
Codec ID : 40
Duration : 1h 43mn
Bit rate mode : Variable
Bit rate : 152 Kbps
Maximum bit rate : 192 Kbps
Channel(s) : 2 channels
Channel positions : Front: L R
Sampling rate : 44.1 KHz
Compression mode : Lossy
Stream size : 113 MiB (5%)
Language : English

fileup.cc/qyviuwio9lk0
rapidgator.net/file/2535e7cb11d66d4bd876f95ab699426d
rockfile.co/26oc5v3dm06f.html
nitroflare.com/view/9C42D67CBB31DEC
uploadgig.com/file/download/AaB59Fb231bbe41b

ddl.to/f23ya5ls2nfi
ddl.to/8uzrlnzx7ky8
ddl.to/fzjh07rfdjfy

filefox.cc/c6e6d0nbc3nm
filefox.cc/zr7rsgvac7b6
filefox.cc/pr6xu6aewm7f

rockfile.co/1a0nz7j94ghd.html
rockfile.co/iu6fmvwvtvt2.html
rockfile.co/h6a3csj3c1nz.html

nitroflare.com/view/CB02FEFE6D89927
nitroflare.com/view/2E4DBEB3F51B0DC
nitroflare.com/view/DB4BE2FB4EBAE45
WWE NXT 2020 01 22 540p WEBRIP x264-WH

About PH.M.H

[Wrestling Best Uploader]

View all posts by PH.M.H →

One Comment on “WWE NXT 2020 01 22 540p WEBRIP x264-WH”

Leave a Reply

Your email address will not be published. Required fields are marked *