WWE NXT 2019 06 12 720p WEB h264-HEEL

WWE NXT 2019 06 12 720p WEB h264-HEEL

After the unforgettable events from Bridgeport, Conn., NXT travels down the road to Bel Air, Maryland for a special night of NXT action!

WWE NXT 2019 06 12 720p WEB h264-HEEL

WWE NXT 2019 06 12 720p WEB h264-HEEL

After the unforgettable events from Bridgeport, Conn., NXT travels 
down the road to Bel Air, Maryland for a special night of NXT 
action!

Title: WWE.NXT.2019.06.12.720p.WEB.h264-HEEL
Released: 2019.06.12
Source: WWE Network
Resolution: 1280 x 720 @ 29.970 FPS
Video: H.264 @ 4500 kbps
Audio: AAC @ 128 kbps
Size: 1.53 GB
Runtime: 48mn 50sec 

General
Complete name : WWE.NXT.2019.06.12.720p.WEB.h264-HEEL.mp4
Format : MPEG-4
Format profile : Base Media
Codec ID : isom (isom/iso2/avc1/mp41)
File size : 1.54 GiB
Duration : 48 min 50 s
Overall bit rate mode : Constant
Overall bit rate : 4 502 kb/s
Writing application : Lavf58.27.103

Video
ID : 1
Format : AVC
Format/Info : Advanced Video Codec
Format profile : [email protected]
Format settings : CABAC / 4 Ref Frames
Format settings, CABAC : Yes
Format settings, Reference : 4 frames
Codec ID : avc1
Codec ID/Info : Advanced Video Coding
Duration : 48 min 50 s
Duration_FirstFrame : 7 ms
Bit rate mode : Constant
Bit rate : 4 372 kb/s
Width : 1 280 pixels
Height : 720 pixels
Display aspect ratio : 16:9
Frame rate mode : Constant
Frame rate : 29.970 (30000/1001) FPS
Color space : YUV
Chroma subsampling : 4:2:0
Bit depth : 8 bits
Scan type : Progressive
Bits/(Pixel*Frame) : 0.158
Stream size : 1.49 GiB (97%)
Codec configuration box : avcC

Audio
ID : 2
Format : AAC LC
Format/Info : Advanced Audio Codec Low Complexity
Codec ID : mp4a-40-2
Duration : 48 min 50 s
Bit rate mode : Constant
Bit rate : 125 kb/s
Channel(s) : 2 channels
Channel layout : L R
Sampling rate : 48.0 kHz
Frame rate : 46.875 FPS (1024 SPF)
Compression mode : Lossy
Stream size : 43.8 MiB (3%)
Language : English
Default : Yes
Alternate group : 1

Text
ID : 1-CC1
Format : EIA-608
Muxing mode : SCTE 128 / DTVCC Transport
Muxing mode, more info : Muxed in Video #1
Duration : 48 min 50 s
Bit rate mode : Constant
Stream size : 0.00 Byte (0%)
Encoded stream size : 0.00 Byte (0%)
CaptionServiceName : CC1

WWE NXT 2019 06 12 720p WEB h264-HEEL

1fichier.com/?mhhkoaxe8ditgmny1f3u
anonfile.com/delde4v9n4
bayfiles.com/j0l4edven6
bitster.cz/file/75f7d5
ddl.to/xc84bmx9sdi1
dl.free.fr/mtlY66Uv2
file.bz/m0l5eev8n5
filerio.in/gb7ls3xbtwkw
multiup.org/download/30967cdf65e310d88fd2422532983805
nitroflare.com/view/EFC42A0B111BE89
rg.to/file/1661006ff9039b1935763c4f4ce49f19
turbobit.net/c9qeu4hpb1m8.html
uploadgig.com/file/download/6acDcEc15dd55837

 78 total views,  1 views today

WWE NXT 2019 06 12 720p WEB h264-HEEL

WH : Source OF Wrestling Releases / Home OF WH Releases

Buy Premium or Renew From WH Links to Keep it Alive

About PH.M.H

[Wrestling Best Uploader]

View all posts by PH.M.H →

Leave a Reply

Your email address will not be published. Required fields are marked *