WWE NXT Takeover XXV Espanol Web x264

WWE NXT Takeover XXV Espanol Web x264

WWE NXT Takeover XXV Espanol Web x264

WWE NXT Takeover XXV Espanol Web x264

NXT Takeover XXV that aired on 6-1-2019. Downloaded directly from the WWE Network. Enjoy!


Language: Espanol

Video
Format : AVC
Format/Info : Advanced Video Codec
Format profile : [email protected]
Format settings : CABAC / 4 Ref Frames
Format settings, CABAC : Yes
Format settings, RefFrames : 4 frames
Codec ID : avc1
Codec ID/Info : Advanced Video Coding
Duration : 2 h 38 min
Bit rate mode : Constant
Bit rate : 2 872 kb/s
Width : 960 pixels
Height : 720 pixels
Display aspect ratio : 16:9
Frame rate mode : Constant
Frame rate : 29.970 (30000/1001) FPS
Color space : YUV
Chroma subsampling : 4:2:0
Bit depth : 8 bits
Scan type : Progressive
Bits/(Pixel*Frame) : 0.139
Stream size : 3.18 GiB (96%)
Codec configuration box : avcC

Audio
Format : AAC LC
Format/Info : Advanced Audio Codec Low Complexity
Codec ID : mp4a-40-2
Duration : 2 h 38 min
Bit rate mode : Constant
Bit rate : 125 kb/s
Channel(s) : 2 channels
Channel layout : L R
Sampling rate : 48.0 kHz
Frame rate : 46.875 FPS (1024 SPF)
Compression mode : Lossy
Stream size : 142 MiB (4%)
Language : English
Default : Yes
Alternate group : 1

WWE NXT Takeover XXV Espanol Web x264

1fichier.com/?yks6ykdga9tosrg0600r
bitster.cz/file/0e58b6
dl.free.fr/mZDXnhiPP
file.bz/r8x8Ibtan5
filerio.in/33qb9dmhe7ki
filescdn.net/7hdulk40l8ck
multiup.org/download/69379e932b43b3d296c22e292b44ed6b
nitroflare.com/view/2693A24E2A54DD6
openload.co/f/e-k0vK0dgqU
rg.to/file/42cbcc8d1cf25f8add503bce7dae68c3
turbobit.net/9yinfcjmlz58.html

 85 total views,  1 views today

WWE NXT Takeover XXV Espanol Web x264

WH : Source OF Wrestling Releases / Home OF WH Releases

Buy Premium or Renew From WH Links to Keep it Alive

About PH.M.H

[Wrestling Best Uploader]

View all posts by PH.M.H →

Leave a Reply

Your email address will not be published. Required fields are marked *