WWE NXT TakeOver XXV 2019 Pre Show WEB h264-HEEL

WWE NXT TakeOver XXV 2019 Pre Show WEB h264-HEEL

WWE NXT TakeOver XXV 2019 Pre Show WEB h264-HEEL

WWE NXT TakeOver XXV 2019 Pre Show WEB h264-HEEL

Join an all-star panel of NXT experts as they discuss all the action and excitement coming up at NXT TakeOver: XXV!

Title: WWE.NXT.TakeOver.XXV.2019.Pre.Show.WEB.h264-HEEL
Released: 2019.06.01
Source: WWE Network
Resolution: 896 x 504 @ 29.970 FPS
Video: H.264 @ 1800 kbps
Audio: AAC @ 96 kbps
Size: 383 MB
Runtime: 29mn 44sec

General
Complete name : WWE.NXT.TakeOver.XXV.2019.Pre.Show.WEB.h264-HEEL.mp4
Format : MPEG-4
Format profile : Base Media
Codec ID : isom (isom/iso2/avc1/mp41)
File size : 384 MiB
Duration : 29 min 44 s
Overall bit rate mode : Variable
Overall bit rate : 1 804 kb/s
Writing application : Lavf58.26.101

Video
ID : 1
Format : AVC
Format/Info : Advanced Video Codec
Format profile : [email protected]
Format settings : CABAC / 4 Ref Frames
Format settings, CABAC : Yes
Format settings, Reference : 4 frames
Codec ID : avc1
Codec ID/Info : Advanced Video Coding
Duration : 29 min 44 s
Duration_FirstFrame : 12 ms
Bit rate mode : Constant
Bit rate : 1 704 kb/s
Width : 896 pixels
Height : 504 pixels
Display aspect ratio : 16:9
Frame rate mode : Constant
Frame rate : 29.970 (30000/1001) FPS
Color space : YUV
Chroma subsampling : 4:2:0
Bit depth : 8 bits
Scan type : Progressive
Bits/(Pixel*Frame) : 0.126
Stream size : 362 MiB (94%)
Codec configuration box : avcC

Audio
ID : 2
Format : AAC LC
Format/Info : Advanced Audio Codec Low Complexity
Codec ID : mp4a-40-2
Duration : 29 min 44 s
Bit rate mode : Variable
Bit rate : 93.5 kb/s
Maximum bit rate : 108 kb/s
Channel(s) : 2 channels
Channel layout : L R
Sampling rate : 48.0 kHz
Frame rate : 46.875 FPS (1024 SPF)
Compression mode : Lossy
Stream size : 19.9 MiB (5%)
Language : English
Default : Yes
Alternate group : 1

Text
ID : 1-CC1
Format : EIA-608
Muxing mode : SCTE 128 / DTVCC Transport
Muxing mode, more info : Muxed in Video #1
Duration : 29 min 44 s
Bit rate mode : Constant
Stream size : 0.00 Byte (0%)
Encoded stream size : 0.00 Byte (0%)
CaptionServiceName : CC1

WWE NXT TakeOver XXV 2019 Pre Show WEB h264-HEEL

1fichier.com/?sxf9ba5ysrzdkrfqa85o
anonfile.com/sdQdE9tdne
bitster.cz/file/394f75
ddl.to/ur25b147outt
dl.free.fr/mKwL1haEZ
www.filefactory.com/file/4ff8a4a3e4gx
filerio.in/hm65wmlbcmzd
filescdn.net/dqvcdp55m1o4
multiup.org/download/dcf7b9c9db348bfc7758f997243aa49d
nitroflare.com/view/FE5C8610C65C85C
openload.co/f/-lKQUBgy1kA
rg.to/file/b1ac0f4288a88a69bd14e2f786478740
turbobit.net/mec4oakdn7ng.html

 110 total views,  1 views today

WWE NXT TakeOver XXV 2019 Pre Show WEB h264-HEEL

WH : Source OF Wrestling Releases / Home OF WH Releases

Buy Premium or Renew From WH Links to Keep it Alive

About PH.M.H

[Wrestling Best Uploader]

View all posts by PH.M.H →

Leave a Reply

Your email address will not be published. Required fields are marked *