WWE NXT TakeOver XXV 2019 Pre Show 720p WEB h264-HEEL

WWE NXT TakeOver XXV 2019 Pre Show 720p WEB h264-HEEL

WWE NXT TakeOver XXV 2019 Pre Show 720p WEB h264-HEEL

WWE NXT TakeOver XXV 2019 Pre Show 720p WEB h264-HEEL

Join an all-star panel of NXT experts as they discuss all the action and excitement coming up at NXT TakeOver: XXV!

Title: WWE.NXT.TakeOver.XXV.2019.Pre.Show.720p.WEB.h264-HEEL
Released: 2019.06.01
Source: WWE Network
Resolution: 1280 x 720 @ 29.970 FPS
Video: H.264 @ 4500 kbps
Audio: AAC @ 128 kbps
Size: 957 MB
Runtime: 29mn 44sec

General
Complete name : WWE.NXT.TakeOver.XXV.2019.Pre.Show.720p.WEB.h264-HEEL.mp4
Format : MPEG-4
Format profile : Base Media
Codec ID : isom (isom/iso2/avc1/mp41)
File size : 958 MiB
Duration : 29 min 44 s
Overall bit rate mode : Variable
Overall bit rate : 4 503 kb/s
Writing application : Lavf58.26.101

Video
ID : 1
Format : AVC
Format/Info : Advanced Video Codec
Format profile : [email protected]
Format settings : CABAC / 4 Ref Frames
Format settings, CABAC : Yes
Format settings, Reference : 4 frames
Codec ID : avc1
Codec ID/Info : Advanced Video Coding
Duration : 29 min 44 s
Duration_FirstFrame : 12 ms
Bit rate mode : Constant
Bit rate : 4 372 kb/s
Width : 1 280 pixels
Height : 720 pixels
Display aspect ratio : 16:9
Frame rate mode : Constant
Frame rate : 29.970 (30000/1001) FPS
Color space : YUV
Chroma subsampling : 4:2:0
Bit depth : 8 bits
Scan type : Progressive
Bits/(Pixel*Frame) : 0.158
Stream size : 930 MiB (97%)
Codec configuration box : avcC

Audio
ID : 2
Format : AAC LC
Format/Info : Advanced Audio Codec Low Complexity
Codec ID : mp4a-40-2
Duration : 29 min 44 s
Bit rate mode : Variable
Bit rate : 125 kb/s
Maximum bit rate : 135 kb/s
Channel(s) : 2 channels
Channel layout : L R
Sampling rate : 48.0 kHz
Frame rate : 46.875 FPS (1024 SPF)
Compression mode : Lossy
Stream size : 26.7 MiB (3%)
Language : English
Default : Yes
Alternate group : 1

Text
ID : 1-CC1
Format : EIA-608
Muxing mode : SCTE 128 / DTVCC Transport
Muxing mode, more info : Muxed in Video #1
Duration : 29 min 44 s
Bit rate mode : Constant
Stream size : 0.00 Byte (0%)
Encoded stream size : 0.00 Byte (0%)
CaptionServiceName : CC1

WWE NXT TakeOver XXV 2019 Pre Show 720p WEB h264-HEEL

1fichier.com/?074c3kpi79h5dfk948le
anonfile.com/XeQ7Eat3n7
bitster.cz/file/11ce65
ddl.to/fouq99odw5yf
dl.free.fr/gaQ8Utnxx
www.filefactory.com/file/17f9jv7e839x
filerio.in/er96vw82wd9v
filescdn.net/suboa7un7xtr
multiup.org/download/30cb7b96ffb34039ec7995f314b104a1
nitroflare.com/view/D902E442B61940D
openload.co/f/deIzEdqcNdY
rg.to/file/8e582e41cf0d4271b089ae8b743d4dc1
turbobit.net/wxy08ukzh6ct.html

 127 total views,  3 views today

WWE NXT TakeOver XXV 2019 Pre Show 720p WEB h264-HEEL

WH : Source OF Wrestling Releases / Home OF WH Releases

Buy Premium or Renew From WH Links to Keep it Alive

About PH.M.H

[Wrestling Best Uploader]

View all posts by PH.M.H →

One Comment on “WWE NXT TakeOver XXV 2019 Pre Show 720p WEB h264-HEEL”

Leave a Reply

Your email address will not be published. Required fields are marked *