WWE NXT TakeOver 25 1080i HDTV H.264-TrollHD [69 GB]

WWE NXT TakeOver 25 1080i HDTV H.264-TrollHD [69 GB]

WWE NXT TakeOver 25 1080i HDTV H.264-TrollHD [69 GB]

WWE NXT TakeOver 25 1080i HDTV H.264-TrollHD [69 GB]

General
Complete name                            : WWE NXT 2019-06-01 TakeOver 25 1080i HDTV Backhaul MPA2.0 H.264-TrollHD.mkv
Format                                  : Matroska
Format version                          : Version 4
File size                                : 69.1 GiB
Duration                                : 2 h 38 min
Overall bit rate                        : 62.3 Mb/s
Encoded date                            : UTC 2019-06-02 03:27:12
Writing application                      : mkvmerge v30.0.0 (‘Interstellar’) 64-bit
Writing library                          : libebml v1.3.6 + libmatroska v1.4.9

Video
ID                                      : 1
Format                                  : AVC
Format/Info                              : Advanced Video Codec
Format profile                          : High 4:2:[email protected]
Format settings                          : 4 Ref Frames
Format settings, CABAC                  : No
Format settings, RefFrames              : 4 frames
Codec ID                                : V_MPEG4/ISO/AVC
Duration                                : 2 h 38 min
Bit rate                                : 61.5 Mb/s
Width                                    : 1 920 pixels
Height                                  : 1 080 pixels
Display aspect ratio                    : 16:9
Frame rate mode                          : Variable
Frame rate                              : 59.940 (59940/1000) FPS
Original frame rate                      : 29.970 (30000/1001) FPS
Color space                              : YUV
Chroma subsampling                      : 4:2:2
Bit depth                                : 8 bits
Scan type                                : Interlaced
Scan type, store method                  : Separated fields
Scan order                              : Top Field First
Bits/(Pixel*Frame)                      : 0.495
Stream size                              : 68.2 GiB (99%)
Default                                  : Yes
Forced                                  : No
Color range                              : Limited
Color primaries                          : BT.709
Transfer characteristics                : BT.709
Matrix coefficients                      : BT.709

Audio #1
ID                                      : 2
Format                                  : MPEG Audio
Format version                          : Version 1
Format profile                          : Layer 2
Codec ID                                : A_MPEG/L2
Codec ID/Hint                            : MP2
Duration                                : 2 h 38 min
Bit rate mode                            : Constant
Bit rate                                : 384 kb/s
Channel(s)                              : 2 channels
Sampling rate                            : 48.0 kHz
Frame rate                              : 41.667 FPS (1152 SPF)
Compression mode                        : Lossy
Stream size                              : 436 MiB (1%)
Language                                : English
Default                                  : Yes
Forced                                  : No

Audio #2
ID                                      : 3
Format                                  : MPEG Audio
Format version                          : Version 1
Format profile                          : Layer 2
Codec ID                                : A_MPEG/L2
Codec ID/Hint                            : MP2
Duration                                : 2 h 38 min
Bit rate mode                            : Constant
Bit rate                                : 384 kb/s
Channel(s)                              : 2 channels
Sampling rate                            : 48.0 kHz
Frame rate                              : 41.667 FPS (1152 SPF)
Compression mode                        : Lossy
Stream size                              : 436 MiB (1%)
Title                                    : No Commentators
Language                                : English
Default                                  : No
Forced                                  : No

WWE NXT TakeOver 25 1080i HDTV H.264-TrollHD [69 GB]
WWE NXT TakeOver 25 1080i HDTV H.264-TrollHD [69 GB]
WWE NXT TakeOver 25 1080i HDTV H.264-TrollHD [69 GB]
WWE NXT TakeOver 25 1080i HDTV H.264-TrollHD [69 GB]

5.5 GB [13 PARTS] // INTERCHANGEABLE LINKS

1fichier

1fichier.com/?62bxdrcowvum77lex7tr
1fichier.com/?tvt42man0kvfgxi7jaip
1fichier.com/?4vadcwbfb5nixk0cilrx
1fichier.com/?qav55cu2bzm30anr9ob9
1fichier.com/?0a9vqjhj69wgjzhqj5vm
1fichier.com/?0yyfrgvxvghqjnajzqkq
1fichier.com/?x7bbiv77skb36yh1qcoj
1fichier.com/?vrg8qdcim27ef4adbvu2
1fichier.com/?eu7rrpqaqbzvy1vqzplf
1fichier.com/?juw27oifqdt1gfmf6qvu
1fichier.com/?nkmcnx2yrh3wkcvsjoly
1fichier.com/?pm1kfg33niti6kyb880v
1fichier.com/?fd077dl04cyvrk39f6n4

filerio

filerio.in/899dc1vy54px
filerio.in/5kgjtp1h9iat
filerio.in/zjsv5i2f7w8b
filerio.in/bnjyg9m3t6lu
filerio.in/j5mf2m6o6rrr
filerio.in/g59czwpu000j
filerio.in/gq3zxcvidle0
filerio.in/z5qupf0v7ml0
filerio.in/bj5h66spkxrh
filerio.in/6lpwg9v1gc5m
filerio.in/yithf3s87q17
filerio.in/3xvxgn7qkeig
filerio.in/v7jrs5auqwtc

bitster

bitster.cz/file/f04a6c
bitster.cz/file/fc11bf
bitster.cz/file/a66e19
bitster.cz/file/abbfae
bitster.cz/file/fb13dd
bitster.cz/file/1bce91
bitster.cz/file/2f9318
bitster.cz/file/4ee811
bitster.cz/file/b42132
bitster.cz/file/be5932
bitster.cz/file/168932
bitster.cz/file/1178e7
bitster.cz/file/f2c9dc

dl.free.fr

dl.free.fr/igpNSe7Vz
dl.free.fr/vVyq5dcR6
dl.free.fr/kvFqKKF9i
dl.free.fr/vaAEAaKTz
dl.free.fr/f5hzicSG5
dl.free.fr/nDMsYW3l7
dl.free.fr/mBAHAgKr4
dl.free.fr/fufnc2yJe
dl.free.fr/bCmeVcTrk
dl.free.fr/v0NWEiyXN
dl.free.fr/kWNYerC1K
dl.free.fr/v5GRU33mb
dl.free.fr/fEG569iws

filescdn

filescdn.net/8rtp0ei1qvaq
filescdn.net/ttgx7c116qou
filescdn.net/piruqe80h4n1
filescdn.net/9xye4acyqeoh
filescdn.net/11o0ogm1gjhh
filescdn.net/k99nrhmfab69
filescdn.net/t3igzsyv6xt0
filescdn.net/0ctq0fqp4agh
filescdn.net/9tfj4u6r2t7m
filescdn.net/p1quf0u2084f
filescdn.net/oblr3na5ivrp
filescdn.net/h66nquq8blct
filescdn.net/oveasz69ge03

turbobit

turbobit.net/mozt2gprhnnx.html
turbobit.net/ke13pkubgb9z.html
turbobit.net/kx3e0h4nokyg.html
turbobit.net/m4mopwrta9t8.html
turbobit.net/69en28ej0oto.html
turbobit.net/usc9s0rrrjvt.html
turbobit.net/d95d9abkvywl.html
turbobit.net/3w15e27jp1hd.html
turbobit.net/7nh60mn204ri.html
turbobit.net/xi71n345xgdh.html
turbobit.net/325ukgrh28vx.html
turbobit.net/woot0pz2qa66.html
turbobit.net/mzdtdmunvvcr.html

Rapidgator

rg.to/file/07003cd7f50228886316c47f9aae2fb1
rg.to/file/e6bfc47055078d19ea2f559ae2ded5dd
rg.to/file/3024b50920b7ec2097427de165953226
rg.to/file/306454b4373a37ef8439018ab453bc10
rg.to/file/974e089f3f94f50e718b2020ed1836f0
rg.to/file/4d7adb53575b65bb9ca2e285538bf128
rg.to/file/6e9d5af9706d1fba7699d54e03d46d33
rg.to/file/d55072ab1108f8ff95b8d1459e486d2d
rg.to/file/e5c0d20fcd58fe6ad9dfc512dcb0f041
rg.to/file/d1ca9bd2e892f6628b5d043cebb255c3
rg.to/file/e349cda27ec896777af2c29ad2607c8b
rg.to/file/c16158d828d29b6ca822edbd2c7fa7d7
rg.to/file/4a41430d436d0198b917cc26bfdc571e

multiup

multiup.org/download/25a6706721499b2b04c93597060c11b1
multiup.org/download/f70d6385d4040bc33f5d08e60b4d603c
multiup.org/download/05307dbed66e7f67773a4f8b306429cf
multiup.org/download/ab57850b058f118ec584dac17b8663b6
multiup.org/download/a410257f9d68503b9baff187b34e99cc
multiup.org/download/370c8905893456fcc3626e4a19bd9cd5
multiup.org/download/2a467a908291c84e651c262260b676b5
multiup.org/download/c4678697867eb488cb2e2a55b79dddcd
multiup.org/download/45a13dbf3982bf1628772aac18ee230e
multiup.org/download/96dc32b813c235554276cfba26a1c88a
multiup.org/download/2769214e0885aa0c987fb3d5b2a5dd92
multiup.org/download/a94500d634897aa289dee457a691f79c
multiup.org/download/23841809d9dcf083da8d377d380ab4bf

 84 total views,  1 views today

WWE NXT TakeOver 25 1080i HDTV H.264-TrollHD [69 GB]

WH : Source OF Wrestling Releases / Home OF WH Releases

Buy Premium or Renew From WH Links to Keep it Alive

About PH.M.H

[Wrestling Best Uploader]

View all posts by PH.M.H →

3 Comments on “WWE NXT TakeOver 25 1080i HDTV H.264-TrollHD [69 GB]”

    1. I MISS UNDERSTAND U PLZ EXPLAIN , REALLY I DELETE THE FILE CUZ I WILL UPLOAD YESTERDAY BOXING PPV ALSO 60 GB

      ARE YOU THE SAME PERSON OF PWT WHO CALLED JAMES ????

  1. It’s an MKV file, so you need something that will play MKV, and a strong enough video card and enough RAM in your system to keep up with a video file this size. This is a monster of a video file. so your best bet will probably be either MPC-HC or VLC on a computer with at least a 1GB/2GB video RAM and 4GB/8GB system RAM. If you have a weaker system/video card, it may stutter trying to keep up.

Leave a Reply

Your email address will not be published. Required fields are marked *