WWE Untold E05 Shane and Angles Brutal Battle

WWE Untold E05 Shane and Angles Brutal Battle WEB h264-HEEL

WWE Untold E05 Shane and Angles Brutal Battle

WWE Untold E05 Shane and Angles Brutal Battle WEB h264-HEEL

General
Complete name : WWE.Untold.E05.Shane.and.Angles.Brutal.Battle.WEB.h264-HEEL.mp4
Format : MPEG-4
Format profile : Base Media
Codec ID : isom (isom/iso2/avc1/mp41)
File size : 254 MiB
Duration : 19 min 57 s
Overall bit rate mode : Variable
Overall bit rate : 1 781 kb/s
Writing application : Lavf58.27.103

Video
ID : 1
Format : AVC
Format/Info : Advanced Video Codec
Format profile : [email protected]
Format settings : CABAC / 3 Ref Frames
Format settings, CABAC : Yes
Format settings, Reference : 3 frames
Codec ID : avc1
Codec ID/Info : Advanced Video Coding
Duration : 19 min 57 s
Bit rate mode : Variable
Bit rate : 1 681 kb/s
Maximum bit rate : 2 125 kb/s
Width : 960 pixels
Height : 540 pixels
Display aspect ratio : 16:9
Frame rate mode : Constant
Frame rate : 29.970 (30000/1001) FPS
Color space : YUV
Chroma subsampling : 4:2:0
Bit depth : 8 bits
Scan type : Progressive
Bits/(Pixel*Frame) : 0.108
Stream size : 240 MiB (94%)
Codec configuration box : avcC

Audio
ID : 2
Format : AAC LC
Format/Info : Advanced Audio Codec Low Complexity
Codec ID : mp4a-40-2
Duration : 19 min 57 s
Bit rate mode : Variable
Bit rate : 93.5 kb/s
Maximum bit rate : 103 kb/s
Channel(s) : 2 channels
Channel layout : L R
Sampling rate : 48.0 kHz
Frame rate : 46.875 FPS (1024 SPF)
Compression mode : Lossy
Stream size : 13.3 MiB (5%)
Default : Yes
Alternate group : 1

Text
ID : 1-CC1
Format : EIA-608
Muxing mode : SCTE 128 / DTVCC Transport
Muxing mode, more info : Muxed in Video #1
Duration : 19 min 57 s
Bit rate mode : Constant
Stream size : 0.00 Byte (0%)
Encoded stream size : 0.00 Byte (0%)
CaptionServiceName : CC1

WWE Untold E05 Shane and Angles Brutal Battle

1fichier.com/?eriukjvwd50bcc5rhs6z
anonfile.com/C0T78dv0n4
bayfiles.com/N8T48cv5nd
bitster.cz/file/f84741
ddl.to/c7mwcq3nt584
dl.free.fr/iLewscqFQ
file.bz/MaT383vcnd
filerio.in/r1n91tjl9ci3
multiup.org/download/e5d03b3d7d7665a836b4d9eb004fc14f/WWE.Untold.E05.Shane.and.Angles.Brutal.Battle.WEB.h264-HEEL.mp4
nitroflare.com/view/05BE98E2CF3953E/WWE.Untold.E05.Shane.and.Angles.Brutal.Battle.WEB.h264-HEEL.mp4
rg.to/file/56d13e96c192f8006ffab0992b2f43a6
turbobit.net/pdohanomej1m.html
uploadgig.com/file/download/96d692c238373422/WWE.Untold.E05.Shane.and.Angles.Brutal.Battle.WEB.h264-HEEL.mp4

 87 total views,  1 views today

WWE Untold E05 Shane and Angles Brutal Battle

WH : Source OF Wrestling Releases / Home OF WH Releases

Buy Premium or Renew From WH Links to Keep it Alive

About PH.M.H

[Wrestling Best Uploader]

View all posts by PH.M.H →

Leave a Reply

Your email address will not be published. Required fields are marked *