WWE Untold E05 Shane and Angles Brutal Battle 720p

WWE Untold E05 Shane and Angles Brutal Battle 720p WEB h264-HEEL

WWE Untold E05 Shane and Angles Brutal Battle 720p

WWE Untold E05 Shane and Angles Brutal Battle 720p WEB h264-HEEL

General
Complete name : WWE.Untold.E05.Shane.and.Angles.Brutal.Battle.720p.WEB.h264-HEEL.mp4
Format : MPEG-4
Format profile : Base Media
Codec ID : isom (isom/iso2/avc1/mp41)
File size : 637 MiB
Duration : 19 min 57 s
Overall bit rate mode : Variable
Overall bit rate : 4 462 kb/s
Writing application : Lavf58.27.103

Video
ID : 1
Format : AVC
Format/Info : Advanced Video Codec
Format profile : [email protected]
Format settings : CABAC / 3 Ref Frames
Format settings, CABAC : Yes
Format settings, Reference : 3 frames
Codec ID : avc1
Codec ID/Info : Advanced Video Coding
Duration : 19 min 57 s
Bit rate mode : Variable
Bit rate : 4 360 kb/s
Maximum bit rate : 5 500 kb/s
Width : 1 280 pixels
Height : 720 pixels
Display aspect ratio : 16:9
Frame rate mode : Constant
Frame rate : 29.970 (30000/1001) FPS
Color space : YUV
Chroma subsampling : 4:2:0
Bit depth : 8 bits
Scan type : Progressive
Bits/(Pixel*Frame) : 0.158
Stream size : 623 MiB (98%)
Codec configuration box : avcC

Audio
ID : 2
Format : AAC LC
Format/Info : Advanced Audio Codec Low Complexity
Codec ID : mp4a-40-2
Duration : 19 min 57 s
Bit rate mode : Variable
Bit rate : 93.5 kb/s
Maximum bit rate : 103 kb/s
Channel(s) : 2 channels
Channel layout : L R
Sampling rate : 48.0 kHz
Frame rate : 46.875 FPS (1024 SPF)
Compression mode : Lossy
Stream size : 13.3 MiB (2%)
Default : Yes
Alternate group : 1

Text
ID : 1-CC1
Format : EIA-608
Muxing mode : SCTE 128 / DTVCC Transport
Muxing mode, more info : Muxed in Video #1
Duration : 19 min 57 s
Bit rate mode : Constant
Stream size : 0.00 Byte (0%)
Encoded stream size : 0.00 Byte (0%)
CaptionServiceName : CC1

WWE Untold E05 Shane and Angles Brutal Battle 720p

1fichier.com/?dnhp3m2gggji99e8ckou
anonfile.com/V2T989v2n7
bayfiles.com/QeT58av3na
bitster.cz/file/5edf83
ddl.to/cfzyw2t3q28g
dl.free.fr/hCfeJgaDm
file.bz/RbT18fvenb
filerio.in/njwb1ybw4t7k
multiup.org/download/7e583fb0c871d4901b23de333dbfa2c5/WWE.Untold.E05.Shane.and.Angles.Brutal.Battle.720p.WEB.h264-HEEL.mp4
nitroflare.com/view/8687BC7A002C33B/WWE.Untold.E05.Shane.and.Angles.Brutal.Battle.720p.WEB.h264-HEEL.mp4
rg.to/file/be0609bd6cb5220ee07bccab499e4ee7
turbobit.net/vvvqffilr864.html
uploadgig.com/file/download/0291816038d9c44e/WWE.Untold.E05.Shane.and.Angles.Brutal.Battle.720p.WEB.h264-HEEL.mp4

 128 total views,  1 views today

WWE Untold E05 Shane and Angles Brutal Battle 720p

WH : Source OF Wrestling Releases / Home OF WH Releases

Buy Premium or Renew From WH Links to Keep it Alive

About PH.M.H

[Wrestling Best Uploader]

View all posts by PH.M.H →

Leave a Reply

Your email address will not be published. Required fields are marked *