WWE This Week 2019 06 21 WEB h264-HEEL

WWE This Week 2019 06 21 WEB h264-HEEL

WWE This Week 2019 06 21 WEB h264-HEEL

WWE This Week 2019 06 21 WEB h264-HEEL

General
Complete name : WWE.This.Week.2019.06.21.WEB.h264-HEEL.mp4
Format : MPEG-4
Format profile : Base Media
Codec ID : isom (isom/iso2/avc1/mp41)
File size : 372 MiB
Duration : 29 min 3 s
Overall bit rate mode : Variable
Overall bit rate : 1 791 kb/s
Writing application : Lavf58.27.103

Video
ID : 1
Format : AVC
Format/Info : Advanced Video Codec
Format profile : [email protected]
Format settings : CABAC / 3 Ref Frames
Format settings, CABAC : Yes
Format settings, Reference : 3 frames
Codec ID : avc1
Codec ID/Info : Advanced Video Coding
Duration : 29 min 3 s
Bit rate mode : Variable
Bit rate : 1 690 kb/s
Maximum bit rate : 2 125 kb/s
Width : 960 pixels
Height : 540 pixels
Display aspect ratio : 16:9
Frame rate mode : Constant
Frame rate : 29.970 (30000/1001) FPS
Color space : YUV
Chroma subsampling : 4:2:0
Bit depth : 8 bits
Scan type : Progressive
Bits/(Pixel*Frame) : 0.109
Stream size : 351 MiB (94%)
Codec configuration box : avcC

Audio
ID : 2
Format : AAC LC
Format/Info : Advanced Audio Codec Low Complexity
Codec ID : mp4a-40-2
Duration : 29 min 3 s
Bit rate mode : Variable
Bit rate : 93.5 kb/s
Maximum bit rate : 103 kb/s
Channel(s) : 2 channels
Channel layout : L R
Sampling rate : 48.0 kHz
Frame rate : 46.875 FPS (1024 SPF)
Compression mode : Lossy
Stream size : 19.4 MiB (5%)
Default : Yes
Alternate group : 1

Text
ID : 1-CC1
Format : EIA-608
Muxing mode : SCTE 128 / DTVCC Transport
Muxing mode, more info : Muxed in Video #1
Duration : 29 min 3 s
Bit rate mode : Constant
Stream size : 0.00 Byte (0%)
Encoded stream size : 0.00 Byte (0%)
CaptionServiceName : CC1

WWE This Week 2019 06 21 WEB h264-HEEL

dailyuploads.net/s898gwjeyuqq
nitroflare.com/view/48CC652E4045EE7
nxload.com/v/7Or0wfrAEMT9
rg.to/file/7882da99475882c6d097bb425a1b35e9
uploadmp4.org/8XYX6PDUKE5J.html
uptomega.com/2532wljrd2ug

1fichier.com/?n7xzjg7phsaf0guyok97
bayfiles.com/cc09hcwcnc
dl.free.fr/rg3kLWm4p
file.bz/n507hew8n3
www.filefactory.com/file/62il9jlp21vl
multiup.org/download/352c11e381371fb4acde35e9d8a19a2b
turbobit.net/c7ouvlt6u34a.html
uptobox.com/430jmlyogoww

 91 total views,  1 views today

WWE This Week 2019 06 21 WEB h264-HEEL

WH : Source OF Wrestling Releases / Home OF WH Releases

Buy Premium or Renew From WH Links to Keep it Alive

About PH.M.H

[Wrestling Best Uploader]

View all posts by PH.M.H →

Leave a Reply

Your email address will not be published. Required fields are marked *