WWE This Week 2019 06 21 720p WEB h264-HEEL

WWE This Week 2019 06 21 720p WEB h264-HEEL

WWE This Week 2019 06 21 720p WEB h264-HEEL

WWE This Week 2019 06 21 720p WEB h264-HEEL

General
Complete name : WWE.This.Week.2019.06.21.720p.WEB.h264-HEEL.mp4
Format : MPEG-4
Format profile : Base Media
Codec ID : isom (isom/iso2/avc1/mp41)
File size : 925 MiB
Duration : 29 min 3 s
Overall bit rate mode : Variable
Overall bit rate : 4 451 kb/s
Writing application : Lavf58.27.103

Video
ID : 1
Format : AVC
Format/Info : Advanced Video Codec
Format profile : [email protected]
Format settings : CABAC / 3 Ref Frames
Format settings, CABAC : Yes
Format settings, Reference : 3 frames
Codec ID : avc1
Codec ID/Info : Advanced Video Coding
Duration : 29 min 3 s
Bit rate mode : Variable
Bit rate : 4 349 kb/s
Maximum bit rate : 5 500 kb/s
Width : 1 280 pixels
Height : 720 pixels
Display aspect ratio : 16:9
Frame rate mode : Constant
Frame rate : 29.970 (30000/1001) FPS
Color space : YUV
Chroma subsampling : 4:2:0
Bit depth : 8 bits
Scan type : Progressive
Bits/(Pixel*Frame) : 0.157
Stream size : 904 MiB (98%)
Codec configuration box : avcC

Audio
ID : 2
Format : AAC LC
Format/Info : Advanced Audio Codec Low Complexity
Codec ID : mp4a-40-2
Duration : 29 min 3 s
Bit rate mode : Variable
Bit rate : 93.5 kb/s
Maximum bit rate : 103 kb/s
Channel(s) : 2 channels
Channel layout : L R
Sampling rate : 48.0 kHz
Frame rate : 46.875 FPS (1024 SPF)
Compression mode : Lossy
Stream size : 19.4 MiB (2%)
Default : Yes
Alternate group : 1

Text
ID : 1-CC1
Format : EIA-608
Muxing mode : SCTE 128 / DTVCC Transport
Muxing mode, more info : Muxed in Video #1
Duration : 29 min 3 s
Bit rate mode : Constant
Stream size : 0.00 Byte (0%)
Encoded stream size : 0.00 Byte (0%)
CaptionServiceName : CC1

WWE This Week 2019 06 21 720p WEB h264-HEEL

dailyuploads.net/9pnmuzfn7qfn
nitroflare.com/view/915843B1AEF5279
rg.to/file/99783e5ada17cc2c1c8f1e1a1bdb609c

1fichier.com/?iz2cexzy3y3199u9fdlr
bayfiles.com/P009h0w3n0
dl.free.fr/bfWEMjVNj
file.bz/t40fh9wcnb
www.filefactory.com/file/3ag3e0c7uv41
multiup.org/download/560c2ac53b5e688f607a32e14e7bcd20
turbobit.net/xdkphhxmn851.html
uptobox.com/6hhsc1vnlkw2

 70 total views,  1 views today

WWE This Week 2019 06 21 720p WEB h264-HEEL

WH : Source OF Wrestling Releases / Home OF WH Releases

Buy Premium or Renew From WH Links to Keep it Alive

About PH.M.H

[Wrestling Best Uploader]

View all posts by PH.M.H →

Leave a Reply

Your email address will not be published. Required fields are marked *