WWE This Week 2019 06 14 720p WEB h264-HEEL

WWE This Week 2019 06 14 720p WEB h264-HEEL

WWE This Week 2019 06 14 720p WEB h264-HEEL

WWE This Week 2019 06 14 720p WEB h264-HEEL

General
Complete name : WWE.This.Week.2019.06.14.720p.WEB.h264-HEEL.mp4
Format : MPEG-4
Format profile : Base Media
Codec ID : isom (isom/iso2/avc1/mp41)
File size : 926 MiB
Duration : 29 min 2 s
Overall bit rate mode : Variable
Overall bit rate : 4 458 kb/s
Writing application : Lavf58.27.103

Video
ID : 1
Format : AVC
Format/Info : Advanced Video Codec
Format profile : [email protected]
Format settings : CABAC / 3 Ref Frames
Format settings, CABAC : Yes
Format settings, Reference : 3 frames
Codec ID : avc1
Codec ID/Info : Advanced Video Coding
Duration : 29 min 2 s
Bit rate mode : Variable
Bit rate : 4 356 kb/s
Maximum bit rate : 5 500 kb/s
Width : 1 280 pixels
Height : 720 pixels
Display aspect ratio : 16:9
Frame rate mode : Constant
Frame rate : 29.970 (30000/1001) FPS
Color space : YUV
Chroma subsampling : 4:2:0
Bit depth : 8 bits
Scan type : Progressive
Bits/(Pixel*Frame) : 0.158
Stream size : 905 MiB (98%)
Codec configuration box : avcC

Audio
ID : 2
Format : AAC LC
Format/Info : Advanced Audio Codec Low Complexity
Codec ID : mp4a-40-2
Duration : 29 min 2 s
Bit rate mode : Variable
Bit rate : 93.5 kb/s
Maximum bit rate : 102 kb/s
Channel(s) : 2 channels
Channel layout : L R
Sampling rate : 48.0 kHz
Frame rate : 46.875 FPS (1024 SPF)
Compression mode : Lossy
Stream size : 19.4 MiB (2%)
Default : Yes
Alternate group : 1

Text
ID : 1-CC1
Format : EIA-608
Muxing mode : SCTE 128 / DTVCC Transport
Muxing mode, more info : Muxed in Video #1
Duration : 29 min 2 s
Bit rate mode : Constant
Stream size : 0.00 Byte (0%)
Encoded stream size : 0.00 Byte (0%)
CaptionServiceName : CC1

WWE This Week 2019 06 14 720p WEB h264-HEEL

1fichier.com/?i6f0x2e4n7s134xui3r0
anonfile.com/B9Zat4v5n6
bayfiles.com/e8a6u3v1nd
bitster.cz/file/ddecfd
ddl.to/vuv6e16xhemy
dl.free.fr/wMvWByHav
file.bz/EfZft5v5n0
www.filefactory.com/file/3q2uc6xqjfkj
filerio.in/plpxvmqrhhti
multiup.org/download/ab7e927efb3f50bcc20ac1b5646cbce8/WWE.This.Week.2019.06.14.720p.WEB.h264-HEEL.mp4
nitroflare.com/view/11F24536F462B4E/WWE.This.Week.2019.06.14.720p.WEB.h264-HEEL.mp4
turbobit.net/vr41dcfbyb0o.html
uploadgig.com/file/download/1A723e8b77A2709d/WWE.This.Week.2019.06.14.720p.WEB.h264-HEEL.mp4

 90 total views,  1 views today

WWE This Week 2019 06 14 720p WEB h264-HEEL

WH : Source OF Wrestling Releases / Home OF WH Releases

Buy Premium or Renew From WH Links to Keep it Alive

About PH.M.H

[Wrestling Best Uploader]

View all posts by PH.M.H →

Leave a Reply

Your email address will not be published. Required fields are marked *