WWE The Bump 2020 02 05 1080p -HEEL

Spread the love

WWE The Bump 2020 02 05 1080p WEB h264-HEEL

WWE The Bump 2020 02 05 1080p -HEEL

General
Complete name : WWE.The.Bump.2020.02.05.1080p.WEB.h264-HEEL.mp4
Format : MPEG-4
Format profile : Base Media
Codec ID : isom (isom/iso2/avc1/mp41)
File size : 1.38 GiB
Duration : 1 h 39 min
Overall bit rate : 1 982 kb/s
Writing application : Lavf58.32.104

Video
Format settings, CABAC : Yes
Format settings, Reference : 1 frame
Codec ID : avc1
Duration : 1 h 39 min
Bit rate : 1 850 kb/s
Width : 1 920 pixels
Height : 1 080 pixels
Display aspect ratio : 16:9
Frame rate mode : Constant
Frame rate : 30.000 FPS
Color space : YUV
Chroma subsampling : 4:2:0
Bit depth : 8 bits
Scan type : Progressive
Bits/(Pixel*Frame) : 0.030
Stream size : 1.29 GiB (93%)
Color range : Limited
Color primaries : BT.709
Transfer characteristics : BT.709
Matrix coefficients : BT.709
Codec configuration box : avcC

Audio
Duration : 1 h 39 min
Bit rate mode : Constant
Bit rate : 125 kb/s
Channel(s) : 2 channels
Channel layout : L R
Sampling rate : 48.0 kHz
Frame rate : 46.875 FPS (1024 SPF)
Compression mode : Lossy
Stream size : 89.6 MiB (6%)
Default : Yes
Alternate group : 1

WWE The Bump 2020 02 05 1080p -HEEL

About PH.M.H

[Wrestling Best Uploader]

View all posts by PH.M.H →

One Comment on “WWE The Bump 2020 02 05 1080p -HEEL”

Leave a Reply

Your email address will not be published. Required fields are marked *