WWE The Bump 2020 01 22 1080p WEB h264-HEEL

Spread the love

WWE The Bump 2020 01 22 1080p WEB h264-HEEL

WWE The Bump 2020 01 22 1080p WEB h264-HEEL

General
Complete name : WWE.The.Bump.2020.01.22.1080p.WEB.h264-HEEL.mp4
Format : MPEG-4
Codec ID : isom
File size : 1.80 GiB
Duration : 1h 40mn
Overall bit rate : 2 568 Kbps
Writing application : Lavf58.30.100

Video
ID : 1
Format : AVC
Codec ID : avc1
Codec ID/Info : Advanced Video Coding
Duration : 1h 40mn
Bit rate mode : Variable
Bit rate : 2 436 Kbps
Width : 1 920 pixels
Height : 1 080 pixels
Display aspect ratio : 16:9
Frame rate mode : Variable
Frame rate : 30.000 fps
Minimum frame rate : 22.727 fps
Maximum frame rate : 30.928 fps
Color space : YUV
Chroma subsampling : 4:2:0
Bit depth : 8 bits
Scan type : Progressive
Bits/(Pixel*Frame) : 0.039
Stream size : 1.70 GiB (95%)

Audio
ID : 2
Format : AAC
Codec ID : 40
Duration : 1h 40mn
Bit rate mode : Constant
Bit rate : 125 Kbps
Channel(s) : 2 channels
Channel positions : Front: L R
Sampling rate : 48.0 KHz
Compression mode : Lossy
Stream size : 89.8 MiB (5%)


fileup.cc/1rya6l50r735
rapidgator.net/file/5f1d6b5985fa1ebd7407dcb6eec733fb
rockfile.co/pse6hpsyjk9y.html
nitroflare.com/view/FAEADE12B332D65
uploadgig.com/file/download/Abb0cBeff63437f1
WWE The Bump 2020 01 22 1080p WEB h264-HEEL

About PH.M.H

[Wrestling Best Uploader]

View all posts by PH.M.H →

One Comment on “WWE The Bump 2020 01 22 1080p WEB h264-HEEL”

Leave a Reply

Your email address will not be published. Required fields are marked *