WWE Ride Along S04E04 The Bar Car

WWE Ride Along S04E04 The Bar Car WEB h264-HEEL

WWE Ride Along S04E04 The Bar Car

WWE Ride Along S04E04 The Bar Car WEB h264-HEEL

General
Complete name : WWE.Ride.Along.S04E04.The.Bar.Car.WEB.h264-HEEL.mp4
Format : MPEG-4
Format profile : Base Media
Codec ID : isom (isom/iso2/avc1/mp41)
File size : 227 MiB
Duration : 17 min 43 s
Overall bit rate mode : Variable
Overall bit rate : 1 789 kb/s
Writing application : Lavf58.27.103

Video
ID : 1
Format : AVC
Format/Info : Advanced Video Codec
Format profile : [email protected]
Format settings : CABAC / 3 Ref Frames
Format settings, CABAC : Yes
Format settings, Reference : 3 frames
Codec ID : avc1
Codec ID/Info : Advanced Video Coding
Duration : 17 min 43 s
Bit rate mode : Variable
Bit rate : 1 688 kb/s
Maximum bit rate : 2 125 kb/s
Width : 960 pixels
Height : 540 pixels
Display aspect ratio : 16:9
Frame rate mode : Constant
Frame rate : 29.970 (30000/1001) FPS
Color space : YUV
Chroma subsampling : 4:2:0
Bit depth : 8 bits
Scan type : Progressive
Bits/(Pixel*Frame) : 0.109
Stream size : 214 MiB (94%)
Codec configuration box : avcC

Audio
ID : 2
Format : AAC LC
Format/Info : Advanced Audio Codec Low Complexity
Codec ID : mp4a-40-2
Duration : 17 min 43 s
Bit rate mode : Constant
Bit rate : 93.5 kb/s
Channel(s) : 2 channels
Channel layout : L R
Sampling rate : 48.0 kHz
Frame rate : 46.875 FPS (1024 SPF)
Compression mode : Lossy
Stream size : 11.9 MiB (5%)
Default : Yes
Alternate group : 1

Text
ID : 1-CC1
Format : EIA-608
Muxing mode : SCTE 128 / DTVCC Transport
Muxing mode, more info : Muxed in Video #1
Duration : 17 min 43 s
Bit rate mode : Constant
Stream size : 0.00 Byte (0%)
Encoded stream size : 0.00 Byte (0%)
CaptionServiceName : CC1

WWE Ride Along S04E04 The Bar Car

1fichier.com/?o1m22c9w3gdmctrsl1me
anonfile.com/75l4Gdv0nf
bayfiles.com/C3l2G7v9n6
bitster.cz/file/074bd3
ddl.to/926x1iznu4bm
dl.free.fr/qDa09XI4F
file.bz/E6laGfvfnf
filerio.in/cxpn4yj14iuf
multiup.org/download/73fb2ad77a4e58335c87a0075465d6bd
nitroflare.com/view/1EC2F931B5A236F
rg.to/file/2d0c7e839dfb2ec55b54bd722b129709
turbobit.net/i3j5merbz8hc.html

 84 total views,  1 views today

WWE Ride Along S04E04 The Bar Car

WH : Source OF Wrestling Releases / Home OF WH Releases

Buy Premium or Renew From WH Links to Keep it Alive

About PH.M.H

[Wrestling Best Uploader]

View all posts by PH.M.H →

Leave a Reply

Your email address will not be published. Required fields are marked *