WWE Ride Along S04E04 The Bar Car 720p

WWE Ride Along S04E04 The Bar Car 720p WEB h264-HEEL

WWE Ride Along S04E04 The Bar Car 720p

WWE Ride Along S04E04 The Bar Car 720p WEB h264-HEEL

General
Complete name : WWE.Ride.Along.S04E04.The.Bar.Car.720p.WEB.h264-HEEL.mp4
Format : MPEG-4
Format profile : Base Media
Codec ID : isom (isom/iso2/avc1/mp41)
File size : 565 MiB
Duration : 17 min 43 s
Overall bit rate mode : Variable
Overall bit rate : 4 452 kb/s
Writing application : Lavf58.27.103

Video
ID : 1
Format : AVC
Format/Info : Advanced Video Codec
Format profile : [email protected]
Format settings : CABAC / 3 Ref Frames
Format settings, CABAC : Yes
Format settings, Reference : 3 frames
Codec ID : avc1
Codec ID/Info : Advanced Video Coding
Duration : 17 min 43 s
Bit rate mode : Variable
Bit rate : 4 349 kb/s
Maximum bit rate : 5 500 kb/s
Width : 1 280 pixels
Height : 720 pixels
Display aspect ratio : 16:9
Frame rate mode : Constant
Frame rate : 29.970 (30000/1001) FPS
Color space : YUV
Chroma subsampling : 4:2:0
Bit depth : 8 bits
Scan type : Progressive
Bits/(Pixel*Frame) : 0.157
Stream size : 552 MiB (98%)
Codec configuration box : avcC

Audio
ID : 2
Format : AAC LC
Format/Info : Advanced Audio Codec Low Complexity
Codec ID : mp4a-40-2
Duration : 17 min 43 s
Bit rate mode : Constant
Bit rate : 93.5 kb/s
Channel(s) : 2 channels
Channel layout : L R
Sampling rate : 48.0 kHz
Frame rate : 46.875 FPS (1024 SPF)
Compression mode : Lossy
Stream size : 11.9 MiB (2%)
Default : Yes
Alternate group : 1

Text
ID : 1-CC1
Format : EIA-608
Muxing mode : SCTE 128 / DTVCC Transport
Muxing mode, more info : Muxed in Video #1
Duration : 17 min 43 s
Bit rate mode : Constant
Stream size : 0.00 Byte (0%)
Encoded stream size : 0.00 Byte (0%)
CaptionServiceName : CC1

WWE Ride Along S04E04 The Bar Car 720p

1fichier.com/?5v9sdijesb8a3knh0ib8
anonfile.com/B2lcG6vcna
bayfiles.com/H3l4Gfvan4
bitster.cz/file/94f4d3
ddl.to/bj1r5fbmreou
dl.free.fr/n2bImtEqE
file.bz/JbldG4vfn1
www.filefactory.com/file/38bg745cvqf3
filerio.in/t0xms99ik20q
multiup.org/download/52a1e90f42027e208879bf144671ca11
nitroflare.com/view/D07F4BCEFA47F22
rg.to/file/80795401b8652fd76e867d4e46b12a64
turbobit.net/po87ttdg5z6t.html

 95 total views,  2 views today

WWE Ride Along S04E04 The Bar Car 720p

WH : Source OF Wrestling Releases / Home OF WH Releases

Buy Premium or Renew From WH Links to Keep it Alive

About PH.M.H

[Wrestling Best Uploader]

View all posts by PH.M.H →

Leave a Reply

Your email address will not be published. Required fields are marked *