WWE Raw Talk 2020 06 01 540p WEBRIP x264-WH

WWE Raw Talk 2020 06 01 540p WEBRIP x264-WH

WWE Raw Talk 2020 06 01 540p WEBRIP x264-WH

General
Complete name : WWE.Raw.Talk.2020.06.01.540p.WEBRIP.x264-WH.mp4
Format : MPEG-4
Format profile : Base Media
Codec ID : isom (isom/iso2/avc1/mp41)
File size : 247 MiB
Duration : 21 min 1 s
Overall bit rate : 1 643 kb/s

Video
Format : AVC
Duration : 21 min 1 s
Bit rate : 1 500 kb/s
Width : 960 pixels
Height : 540 pixels
Display aspect ratio : 16:9
Rotation : 270°
Frame rate mode : Constant
Frame rate : 29.970 (29970/1000) FPS
Color space : YUV
Chroma subsampling : 4:2:0
Bit depth : 8 bits
Scan type : Progressive
Bits/(Pixel*Frame) : 0.097
Stream size : 227 MiB (92%)
Writing library : x264 core 142
Codec configuration box : avcC

Audio
ID : 2
Format : AAC LC
Codec ID : mp4a-40-2
Duration : 21 min 1 s
Bit rate mode : Constant
Bit rate : 128 kb/s
Channel(s) : 2 channels
Channel layout : L R
Sampling rate : 44.1 kHz
Frame rate : 43.066 FPS (1024 SPF)
Compression mode : Lossy
Stream size : 19.2 MiB (8%)
Default : Yes
Alternate group : 1

 188 total views,  1 views today

WWE Raw Talk 2020 06 01 540p WEBRIP x264-WH

WH : Source OF Wrestling Releases / Home OF WH Releases

Buy Premium or Renew From WH Links to Keep it Alive

About PH.M.H

[Wrestling Best Uploader]

View all posts by PH.M.H →

One Comment on “WWE Raw Talk 2020 06 01 540p WEBRIP x264-WH”

Leave a Reply

Your email address will not be published. Required fields are marked *