WWE Main Event 2020 06 17 1080p

WWE Main Event 2020 06 17 1080p WEB h264-TBS

WWE Main Event
WWE Main Event 2020 06 17 1080p
File information

General
Complete name : wwe.main.event.2020.06.17.1080p.web.h264-tbs.mkv
Format : Matroska
Format version : Version 4
File size : 1.86 GiB
Duration : 48 min 15 s
Overall bit rate : 5 512 kb/s

Video
ID : WWE Main Event
Format : AVC
Duration : 44 min 33 s
Bit rate : 5 903 kb/s
Width : 1 920 pixels
Height : 1 080 pixels
Display aspect ratio : 16:9
Frame rate mode : Constant
Frame rate : 29.970 (30000/1001) FPS
Color space : YUV
Chroma subsampling : 4:2:0
Bit depth : 8 bits
Scan type : Progressive
Bits/(Pixel*Frame) : 0.095
Stream size : 1.84 GiB (99%)
Default : Event 2020
Forced : WWE Main Event

Audio
ID : WWE Main Event
Format : AAC LC SBR
Commercial name : HE-AAC
Format settings : Explicit
Codec ID : A_AAC-2
Duration : 44 min 33 s
Bit rate : 64.0 kb/s
Channel(s) : 2 channels
Channel layout : L R
Sampling rate : 48.0 kHz
Frame rate : 23.438 FPS (2048 SPF)
Compression mode : Lossy
Stream size : 20.4 MiB (1%)
Default : Main Event 2020
Forced : WWE Main Event

Single download links

Rapidgator // Nitroflare // Uploadgig // RockFile // ddl.to

References

Home PagePremium site

 254 total views,  1 views today

WWE Main Event 2020 06 17 1080p

WH : Source OF Wrestling Releases / Home OF WH Releases

Buy Premium or Renew From WH Links to Keep it Alive

About PH.M.H

[Wrestling Best Uploader]

View all posts by PH.M.H →

Leave a Reply

Your email address will not be published. Required fields are marked *