WWE Main Event 2020 06 03 720p / 1080p

WWE Main Event 2020 06 03 720p / 1080p

WWE Main Event 2020 06 03 720p / 1080p

WWE Main Event 2020 06 03 720p / 1080p

720p.WEB.h264-W4F 3rd June 2020 – 6/3/20

General
Complete name : 720p.WEB.h264-W4F.mkv
Format : Matroska
Format version : Version 4
File size : 994 MiB
Duration : 43 min 42 s
Overall bit rate : 3 179 kb/s

Video
Format : AVC
Duration : 43 min 41 s
Bit rate : 3 113 kb/s
Width : 1 280 pixels
Height : 720 pixels
Display aspect ratio : 16:9
Frame rate mode : Constant
Frame rate : 29.970 (30000/1001) FPS
Color space : YUV
Chroma subsampling : 4:2:0
Bit depth : 8 bits
Scan type : Progressive
Bits/(Pixel*Frame) : 0.113
Stream size : 973 MiB (98%)
Default : Yes
Forced : No

Audio
ID : 2
Format : AAC LC SBR
Commercial name : HE-AAC
Format settings : Explicit
Codec ID : A_AAC-2
Duration : 43 min 42 s
Bit rate : 64.0 kb/s
Channel(s) : 2 channels
Channel layout : L R
Sampling rate : 48.0 kHz
Frame rate : 23.438 FPS (2048 SPF)
Compression mode : Lossy
Stream size : 20.0 MiB (2%)

1080p.WEB.h264-W4F 3rd June 2020 – 6/3/20

General
Complete name : 1080p.WEB.h264-W4F.mkv
Format : Matroska
Format version : Version 4
File size : 1.82 GiB
Duration : 43 min 42 s
Overall bit rate : 5 978 kb/s

Video
Format : AVC
Codec ID : V_MPEG4/ISO/AVC
Duration : 43 min 41 s
Bit rate : 5 912 kb/s
Width : 1 920 pixels
Height : 1 080 pixels
Display aspect ratio : 16:9
Frame rate mode : Constant
Frame rate : 29.970 (30000/1001) FPS
Color space : YUV
Chroma subsampling : 4:2:0
Bit depth : 8 bits
Scan type : Progressive
Bits/(Pixel*Frame) : 0.095
Stream size : 1.80 GiB (99%)
Default : Yes
Forced : No

Audio
ID : 2
Format : AAC LC SBR
Commercial name : HE-AAC
Format settings : Explicit
Codec ID : A_AAC-2
Duration : 43 min 42 s
Bit rate : 64.0 kb/s
Channel(s) : 2 channels
Channel layout : L R
Sampling rate : 48.0 kHz
Frame rate : 23.438 FPS (2048 SPF)
Compression mode : Lossy
Stream size : 20.0 MiB (1%)
Default : Yes
Forced : No

Watch online

download links

@ comments

link For WH Vip Users @ wrestling-home.vip
Subscribe At our Vip Service @ wrestling-home.vip
Uploaded by wrestling-home.com

 332 total views,  1 views today

WWE Main Event 2020 06 03 720p / 1080p

WH : Source OF Wrestling Releases / Home OF WH Releases

Buy Premium or Renew From WH Links to Keep it Alive

About PH.M.H

[Wrestling Best Uploader]

View all posts by PH.M.H →

2 Comments on “WWE Main Event 2020 06 03 720p / 1080p”

Leave a Reply

Your email address will not be published. Required fields are marked *