WWE Main Event 2020 05 20 1080p WEBRIP x264-WH

WWE Main Event 2020 05 20 1080p WEBRIP x264-WH [2 GB]

WWE Main Event 2020 05 20 1080p WEBRIP x264-WH

General
Complete name : WWE.Main.Event.2020.05.20.1080p.WEBRIP.x264-WH.mp4
Format : MPEG-4
Format profile : Base Media
File size : 1.92 GiB
Duration : 44 min 26 s
Overall bit rate mode : Variable
Overall bit rate : 6 190 kb/s
Writing application : Lavf56.15.102

Video
Format : AVC
Duration : 44 min 26 s
Bit rate : 6 000 kb/s
Width : 1 920 pixels
Height : 1 080 pixels
Display aspect ratio : 16:9
Frame rate mode : Constant
Frame rate : 60.000 FPS
Color space : YUV
Chroma subsampling : 4:2:0
Bit depth : 8 bits
Scan type : Progressive
Bits/(Pixel*Frame) : 0.048
Stream size : 1.87 GiB (97%)

Audio
Codec ID : mp4a-40-2
Duration : 44 min 26 s
Bit rate mode : Variable
Bit rate : 165 kb/s
Maximum bit rate : 320 kb/s
Channel(s) : 2 channels
Channel layout : L R
Sampling rate : 48.0 kHz
Frame rate : 46.875 FPS (1024 SPF)
Compression mode : Lossy
Stream size : 52.6 MiB (3%)
Language : English

 82 total views,  1 views today

About PH.M.H

[Wrestling Best Uploader]

View all posts by PH.M.H

One Comment on “WWE Main Event 2020 05 20 1080p WEBRIP x264-WH”

Leave a Reply

Your email address will not be published. Required fields are marked *