WWE Main Event 2020 05 13 720p WEB

WWE Main Event 2020 05 13 720p WEB

WWE Main Event 2020 05 13 720p WEB

General
Complete name : WWE.Main.Event.2020.05.13.720p.WEB.mp4
Format : MPEG-4
Format profile : Base Media
Codec ID : isom (isom/iso2/avc1/mp41)
File size : 844 MiB
Duration : 45 min 56 s
Overall bit rate : 2 567 kb/s
Writing application : Lavf58.29.100

Video
Format : AVC
Duration : 45 min 56 s
Bit rate : 2 456 kb/s
Width : 1 280 pixels
Height : 720 pixels
Display aspect ratio : 16:9
Frame rate mode : Constant
Frame rate : 50.000 FPS
Color space : YUV
Chroma subsampling : 4:2:0
Bit depth : 8 bits
Scan type : Progressive
Bits/(Pixel*Frame) : 0.053
Stream size : 797 MiB (94%)
Writing library : x264 core 157
Codec configuration box : avcC

Audio
Format : AAC LC
Codec ID : mp4a-40-2
Duration : 45 min 56 s
Bit rate mode : Constant
Bit rate : 129 kb/s
Channel(s) : 2 channels
Channel layout : L R
Sampling rate : 44.1 kHz
Frame rate : 43.066 FPS (1024 SPF)
Compression mode : Lossy
Stream size : 42.3 MiB (5%)
Default : Yes
Alternate group : 1

 43 total views,  2 views today

WWE Main Event 2020 05 13 720p WEB

Buy Premium or Extend From here to Support WH

About PH.M.H

[Wrestling Best Uploader]

View all posts by PH.M.H

One Comment on “WWE Main Event 2020 05 13 720p WEB”

Leave a Reply

Your email address will not be published. Required fields are marked *