WWE Main Event 2020 05 06 1080p WEBRIP x264-WH

WWE Main Event 2020 05 06 1080p WEBRIP x264-WH

WWE Main Event 2020 05 06 1080p WEBRIP x264-WH

General
Complete name : WWE.Main.Event.2020.05.06.1080p.WEBRIP.x264-WH.mp4
Format : MPEG-4
File size : 1.64 GiB
Duration : 50 min 41 s
Overall bit rate mode : Variable
Overall bit rate : 4 619 kb/s

Video
Format : AVC
Duration : 50 min 41 s
Bit rate : 4 500 kb/s
Width : 1 920 pixels
Height : 1 080 pixels
Display aspect ratio : 16:9
Frame rate mode : Constant
Frame rate : 29.970 (29970/1000) FPS
Color space : YUV
Chroma subsampling : 4:2:0
Bit depth : 8 bits
Scan type : Progressive
Bits/(Pixel*Frame) : 0.072
Stream size : 1.58 GiB (97%)

Audio
ID : 2
Format : AAC LC
Format/Info : Advanced Audio Codec Low Complexity
Codec ID : mp4a-40-2
Duration : 50 min 41 s
Bit rate mode : Variable
Bit rate : 152 kb/s
Maximum bit rate : 320 kb/s
Channel(s) : 2 channels
Channel layout : L R
Sampling rate : 44.1 kHz
Frame rate : 43.066 FPS (1024 SPF)
Compression mode : Lossy
Stream size : 55.1 MiB (3%)
Default : Yes
Alternate group : 1

 111 total views,  3 views today

About PH.M.H

[Wrestling Best Uploader]

View all posts by PH.M.H

One Comment on “WWE Main Event 2020 05 06 1080p WEBRIP x264-WH”

Leave a Reply

Your email address will not be published. Required fields are marked *