WWE Main Event 2020 04 29 720p / 1080p -W4F

WWE Main Event 2020 04 29 720p / 1080p WEB h264-W4F

WWE Main Event 2020 04 29 720p / 1080p -W4F

General
Complete name : WWE.Main.Event.2020.04.29.720p.WEB.h264-W4F.mkv
Format : Matroska
Format version : Version 4
File size : 1.00 GiB
Duration : 45 min 23 s
Overall bit rate : 3 161 kb/s

Video
ID : 1
Format : AVC
Codec ID : V_MPEG4/ISO/AVC
Duration : 45 min 22 s
Bit rate : 3 095 kb/s
Width : 1 280 pixels
Height : 720 pixels
Display aspect ratio : 16:9
Frame rate mode : Constant
Frame rate : 29.970 (30000/1001) FPS
Color space : YUV
Chroma subsampling : 4:2:0
Bit depth : 8 bits
Scan type : Progressive
Bits/(Pixel*Frame) : 0.112
Stream size : 1 005 MiB (98%)

Audio
ID : 2
Commercial name : HE-AAC
Codec ID : A_AAC-2
Duration : 45 min 23 s
Bit rate : 64.0 kb/s
Channel(s) : 2 channels
Channel layout : L R
Sampling rate : 48.0 kHz
Frame rate : 23.438 FPS (2048 SPF)
Compression mode : Lossy
Stream size : 20.8 MiB (2%)


General
Complete name : WWE.Main.Event.2020.04.29.1080p.WEB.h264-W4F.mkv
Format : Matroska
Format version : Version 4
File size : 1.90 GiB
Duration : 45 min 23 s
Overall bit rate : 5 983 kb/s

Video
ID : 1
Format : AVC
Codec ID : V_MPEG4/ISO/AVC
Duration : 45 min 22 s
Bit rate : 5 917 kb/s
Width : 1 920 pixels
Height : 1 080 pixels
Display aspect ratio : 16:9
Frame rate mode : Constant
Frame rate : 29.970 (30000/1001) FPS
Color space : YUV
Chroma subsampling : 4:2:0
Bit depth : 8 bits
Scan type : Progressive
Bits/(Pixel*Frame) : 0.095
Stream size : 1.88 GiB (99%)

Audio
ID : 2
Format : AAC LC SBR
Commercial name : HE-AAC
Codec ID : A_AAC-2
Duration : 45 min 23 s
Bit rate : 64.0 kb/s
Channel(s) : 2 channels
Channel layout : L R
Sampling rate : 48.0 kHz
Frame rate : 23.438 FPS (2048 SPF)
Compression mode : Lossy
Stream size : 20.8 MiB (1%)

 36 total views,  2 views today

WWE Main Event 2020 04 29 720p / 1080p -W4F

Buy Premium or Extend From here to Support WH

About PH.M.H

[Wrestling Best Uploader]

View all posts by PH.M.H

2 Comments on “WWE Main Event 2020 04 29 720p / 1080p -W4F”

Leave a Reply

Your email address will not be published. Required fields are marked *