WWE Backstage 2020 02 04 720p HDTV x264-WH

WWE Backstage 2020 02 04 720p HDTV x264-WH

WWE Backstage 2020 02 04 720p HDTV x264-WH

WWE Backstage 2020 02 04 720p HDTV x264-WH

General
Complete name : WWE.Backstage.2020.02.04.720p.HDTV.x264-WH.mp4
Format : MPEG-4
Format profile : Base Media
Codec ID : isom (isom/iso2/avc1/mp41)
File size : 2.09 GiB
Duration : 45 min 23 s
Overall bit rate mode : Constant
Overall bit rate : 6 600 kb/s
Law rating : None
Writing application : Lavf55.33.100

Video
ID : 2
Format settings, CABAC : Yes
Format settings, Reference : 2 frames
Codec ID : avc1
Duration : 45 min 23 s
Bit rate mode : Constant
Bit rate : 6 464 kb/s
Width : 1 280 pixels
Height : 720 pixels
Display aspect ratio : 16:9
Frame rate : 59.940 (60000/1001) FPS
Standard : Component
Color space : YUV
Chroma subsampling : 4:2:0
Bit depth : 8 bits
Scan type : Progressive
Bits/(Pixel*Frame) : 0.117
Stream size : 2.05 GiB (98%)
Color range : Limited
Color primaries : BT.709
Transfer characteristics : BT.709
Matrix coefficients : BT.709
Codec configuration box : avcC

Audio
ID : 1
Codec ID : mp4a-40-2
Duration : 45 min 23 s
Bit rate mode : Constant
Bit rate : 125 kb/s
Channel(s) : 2 channels
Channel layout : L R
Sampling rate : 48.0 kHz
Frame rate : 46.875 FPS (1024 SPF)
Compression mode : Lossy
Stream size : 40.7 MiB (2%)
Default : Yes
Alternate group : 1


ID : 2-CC1
Muxing mode : SCTE 128 / DTVCC Transport
Muxing mode, more info : Muxed in Video #1
Duration : 45 min 23 s
Bit rate mode : Constant
Stream size : 0.00 Byte (0%)
CaptionServiceName : CC1


ID : 2-1
Muxing mode : SCTE 128 / DTVCC Transport
Muxing mode, more info : Muxed in Video #1
Duration : 45 min 23 s
Bit rate mode : Constant
Stream size : 0.00 Byte (0%)

vw

 123 total views,  1 views today

WWE Backstage 2020 02 04 720p HDTV x264-WH

WH : Source OF Wrestling Releases / Home OF WH Releases

Buy Premium or Renew From WH Links to Keep it Alive

About PH.M.H

[Wrestling Best Uploader]

View all posts by PH.M.H →

3 Comments on “WWE Backstage 2020 02 04 720p HDTV x264-WH”



  1. Watch WWE Backstage 2/4/20 – 4th Feb 2020

    Watch WWE Backstage  2/4/20 - 4th Feb 2020

    Watch WWE Backstage 2/4/20 – 4th Feb 2020 – Full Show Replay Online Free

    Download WWE Backstage 2/4/20 – 4th Feb 2020 HD / 720p

    vipWH

Leave a Reply

Your email address will not be published. Required fields are marked *