WWE RAW and RAW Talk 2020 06 15 HDTV Star / 720p

WWE RAW and RAW Talk 2020 06 15 HDTV Star / 720p

WWE RAW and RAW Talk 2020 06 15 HDTV Star

Download WWE RAW & RAW Talk 2020 06 15 HDTV Star

File inFormation

WWE.RAW.&.RAW.Talk.2020.06.15.HDTV.x264-Star
Release Info:
Show Name: WWE RAW & RAW Talk
Genre: Wrestling
Release Date: 2020-06-16(UK)
Air Date: 2020-06-15(US)
Source : HDTV
Container: MP4
Video: H.264 AVC, 1919kb/s, 59.940fps, 720×480, 16:9
Audio: AAC LC, 301kb/s, 48KHz, 2ch
Size: 2.08 GiB
Runtime: 02h 36min – WWE RAw

WWE.RAW.&.RAW.Talk.2020.06.15.720p.HDTV.x264-Star
Release Info:
Show Name: WWE Monday Night RAW & RAW Talk
Genre: Wrestling
Release Date: 2020-06-16(UK)
Air Date: 2020-06-15(US)
Source : HDTV
Container: MKV
Video: H.264 AVC, 15.5Mb/s, 59,940fps, 1280×720, 16:9
Audio: Dolby Digital, AC3, 448kb/s, 48KHz, 5.1ch
Size: 16.9 GiB
Runtime: 02h 36min

references

Info: HOMEPAGETV.comTVDBIMDBScreenShot

Download Single Links :

HDTV ~ RapidGator | NitroFlare | UploadGiG | RockFile

720p ~ RapidGator | NitroFlare | UploadGiG | More Links

* * * * * * * * *

detailed file data

General
Complete name : WWE.RAW.and.RAW.Talk.2020.06.15.HDTV.x264-Star
Format : MPEG-4
Format profile : Base Media / Version 2
Codec ID : mp42 (isom/iso2/avc1/mp41)
File size : 2.08 GiB
Duration : 2 h 36 min
Overall bit rate : 1 912 kb/s

Video
ID : 1
Format : AVC
Format/Info : WWE RAW
Duration : 2 h 36 min
Bit rate : 1 600 kb/s
Width : 720 pixels
Height : 480 pixels
Display aspect ratio : 16:9
Original display aspect rat : 16:9
Frame rate mode : Variable / WWE RAW
Frame rate : 59.940 (60000/1001) FPS
Minimum frame rate : 59.920 FPS
Maximum frame rate : 59.960 FPS
Color space : YUV
Chroma subsampling : 4:2:0
Bit depth : 8 bits
Scan type : Progressive
Bits/(Pixel*Frame) : WWE RAW
Stream size : 1.74 GiB (83%)

Audio
ID : 2
Format : AAC LC
Codec ID : mp4a-40-2
Duration : 2 h 36 min
Bit rate mode : Constant
Bit rate : 301 kb/s
Channel(s) : 2 channels
Channel layout : L R
Sampling rate : 48.0 kHz
Frame rate : 46.875 FPS (1024 SPF)
Compression mode : Lossy
Stream size : 336 MiB (16%)
Title : Stereo
Default : WWE RAw

One Comment on “WWE RAW and RAW Talk 2020 06 15 HDTV Star / 720p”

  1. WWE.RAW.&.RAW.Talk.2020.06.15.720p.HDTV.x264-Star

    ddl.to
    https://ddownload.com/jsiz56sfnh7x
    https://ddownload.com/2nwqtms3sa8y
    https://ddownload.com/rwjkudf749h9
    https://ddownload.com/o0e6jfxpl2mm
    https://ddownload.com/snv7c41za27x
    https://ddownload.com/uq3zy3nt52ou
    https://ddownload.com/97jocq0hhi3q
    https://ddownload.com/1gb8nanab1q3
    https://ddownload.com/yf09hmwl92xr
    rockfile
    https://rockfile.co/4i9h1ahn9rr6.html
    https://rockfile.co/oc9zc7diba71.html
    https://rockfile.co/sgqz1yjqtnp3.html
    https://rockfile.co/0vcil6vymcu7.html
    https://rockfile.co/esvp20uqens1.html
    https://rockfile.co/uuhqa2z4lx2v.html
    https://rockfile.co/tovkz1tr8d2j.html
    https://rockfile.co/oaigxggy6vv9.html
    https://rockfile.co/k52g9czcjney.html
    nitroflare
    http://nitroflare.com/view/68984F4FFAED821
    http://nitroflare.com/view/B4F88E0FE0CFC16
    http://nitroflare.com/view/8809534F3F6E92B
    http://nitroflare.com/view/701C9936CA04F4C
    http://nitroflare.com/view/F139ED165DEE7CC
    http://nitroflare.com/view/7CB2E0E490481D2
    http://nitroflare.com/view/D346F2DCF5B1DA3
    http://nitroflare.com/view/506B9740EF72F13
    http://nitroflare.com/view/706C201339275FA
    rapidgator
    https://rapidgator.net/file/eb66bad5f156e6d3ecdaebed80e93aa9
    https://rapidgator.net/file/e69de6039ecc97bee16b7645525751dc
    https://rapidgator.net/file/4d5c24f652cc27b59b485ec38fbe0b19
    https://rapidgator.net/file/70a5af759e6c6eb118bce9345a535f05
    https://rapidgator.net/file/a701bc3ccc5e6ac92ff09bb8395e0176
    https://rapidgator.net/file/ab47eb6d67de85961831dffbc597c44e
    https://rapidgator.net/file/89b59016226db48db9c72b9705c049e5
    https://rapidgator.net/file/4e7206ec9695e148ea9703a4c15cc7da
    https://rapidgator.net/file/ef4cf5aa252726aa93169005a287a5d6

Leave a Reply

Your email address will not be published. Required fields are marked *