WWE RAW 2019 10 14 SZ HDTV x264-WH [Free 4 All]

WWE RAW 2019 10 14 SZ HDTV x264-WH

dOWNLOAD WWE RAW 2019 10 14 SZ HDTV x264-WH

General
Complete name                    : WWE.RAW.2019.10.14.SZ.HDTV.x264-WH.mp4
Format                           : MPEG-4
Format profile                   : Base Media
Codec ID                         : isom
File size                        : 945 MiB
Duration                         : 2h 7mn
Overall bit rate                 : 1 033 Kbps
Encoded date                     : UTC 2019-09-26 20:46:25
Tagged date                      : UTC 2019-09-26 20:46:25
Writing application              : Lavf56.15.102

Video
ID                               : 1
Format                           : AVC
Format/Info                      : Advanced Video Codec
Format profile                   : [email protected]
Format settings, CABAC           : No
Format settings, ReFrames        : 2 frames
Codec ID                         : avc1
Codec ID/Info                    : Advanced Video Coding
Duration                         : 2h 7mn
Bit rate mode                    : Variable
Bit rate                         : 900 Kbps
Width                            : 960 pixels
Height                           : 540 pixels
Display aspect ratio             : 16:9
Frame rate mode                  : Constant
Frame rate                       : 29.970 fps
Color space                      : YUV
Chroma subsampling               : 4:2:0
Bit depth                        : 8 bits
Scan type                        : Progressive
Bits/(Pixel*Frame)               : 0.058
Stream size                      : 822 MiB (87%)
Writing library                  : x264 core 142
Language                         : English
Encoded date                     : UTC 2019-09-26 20:46:25
Tagged date                      : UTC 2019-09-26 20:46:25

Audio
ID                               : 2
Format                           : AAC
Format/Info                      : Advanced Audio Codec
Format profile                   : LC
Codec ID                         : 40
Duration                         : 2h 7mn
Bit rate mode                    : Constant
Bit rate                         : 128 Kbps
Channel(s)                       : 2 channels
Channel positions                : Front: L R
Sampling rate                    : 44.1 KHz
Compression mode                 : Lossy
Stream size                      : 117 MiB (12%)
Language                         : English
Encoded date                     : UTC 2019-09-26 20:46:25
Tagged date                      : UTC 2019-09-26 20:46:25

https://anonfile.com/e8q00285nb
https://dl.bdupload.in/r68eykjdpu2u
https://file.bz/j9q50381n6
http://www.share-online.biz/dl/1SJXEEZPLBOX
https://uptomega.com/ydrntp3rp4z5

https://multiup.org/download/67203968ce9fd44e395fd1b4eab4fef2
https://uptobox.com/sn3bjmf3knk4
https://userscloud.com/pvdd3dqt9fev
http://dl.free.fr/fQ8WfjzBF
https://1fichier.com/?sn5gvkwgpt21selsjnvx
https://upload.ac/zx21st46iky0
https://fileup.cc/l6x2uo2civju
https://rapidgator.net/file/65d398baed5a3a8a13faefa20e2b92ab

Leave a Reply

Your email address will not be published. Required fields are marked *