WWE RAW 2019 09 30 540p WEBRIP x264-WH

WWE RAW 2019 09 30 540p WEBRIP x264-WH

dOWNLOAD WWE RAW 2019 09 30 540p

WWE RAW 2019 09 30 540p WEBRIP x264-WH

Name – WWE.RAW.2019.09.30.540p.WEBRIP.x264-WH
Aired – 09.30.2019
Released – 10.01.2019
Source – 720p.HEEL
Size – 2.90 GB
Container – MP4
Resolution – 960 x 540p (16:9)
Video – x264 @ 3000 kBPS (60 FBS)
Audio – AAC 152 KBPS
Length – 02:11:53
Releaser – WH Crew

General
Complete name : WWE.RAW.2019.09.30.540p.WEBRIP.x264-WH.mp4
Format : MPEG-4
Format profile : Base Media
Codec ID : isom
File size : 2.90 GiB
Duration : 2h 11mn
Overall bit rate : 3 152 Kbps
Encoded date : UTC 2019-09-26 20:46:25
Tagged date : UTC 2019-09-26 20:46:25
Writing application : Lavf56.15.102

Video
ID : 1
Format : AVC
Format/Info : Advanced Video Codec
Format profile : [email protected]
Format settings, CABAC : No
Format settings, ReFrames : 2 frames
Codec ID : avc1
Codec ID/Info : Advanced Video Coding
Duration : 2h 11mn
Bit rate mode : Variable
Bit rate : 3 000 Kbps
Width : 960 pixels
Height : 540 pixels
Display aspect ratio : 16:9
Frame rate mode : Constant
Frame rate : 60.000 fps
Color space : YUV
Chroma subsampling : 4:2:0
Bit depth : 8 bits
Scan type : Progressive
Bits/(Pixel*Frame) : 0.096
Stream size : 2.75 GiB (95%)
Writing library : x264 core 142
Language : English
Encoded date : UTC 2019-09-26 20:46:25
Tagged date : UTC 2019-09-26 20:46:25

Audio
ID : 2
Format : AAC
Format/Info : Advanced Audio Codec
Format profile : LC
Codec ID : 40
Duration : 2h 11mn
Bit rate mode : Variable
Bit rate : 152 Kbps
Maximum bit rate : 320 Kbps
Channel(s) : 2 channels
Channel positions : Front: L R
Sampling rate : 44.1 KHz
Compression mode : Lossy
Stream size : 143 MiB (5%)
Language : English
Encoded date : UTC 2019-09-26 20:46:25
Tagged date : UTC 2019-09-26 20:46:25

download

4downfiles

https://4downfiles.org/8oljjyujr6ur

earn4files
https://earn4files.com/7ye58o62gxc5

fileup
https://fileup.cc/5obo7cmo34iw

nitroflare
http://nitroflare.com/view/5CFD3C1E56B83F6

rapidgator
https://rapidgator.net/file/c274e74f1550c63409ebc505051c601e

uploadgig
https://uploadgig.com/file/download/68521baa48B51389

Leave a Reply

Your email address will not be published. Required fields are marked *