WWE NXT UK 2020 06 04 720p / 1080p

WWE NXT UK 2020 06 04 720p / 1080p

WWE NXT UK 2020 06 04 720p / 1080p

WWE NXT UK 2020 06 04 720p / 1080p


720p.Lo.WEB.h264-HEEL 4th June 2020 – 6/4/20

General
Complete name : 720p.Lo.WEB.h264-HEEL.mp4
Format : MPEG-4
Format profile : Base Media
File size : 883 MiB
Duration : 1 h 12 min
Overall bit rate mode : Variable

Video
ID : 1
Format : AVC
Duration : 1 h 12 min
Bit rate : 1 512 kb/s
Width : 1 280 pixels
Height : 720 pixels
Display aspect ratio : 16:9
Frame rate mode : Constant
Frame rate : 30.000 FPS
Color space : YUV
Chroma subsampling : 4:2:0
Bit depth : 8 bits
Scan type : Progressive
Bits/(Pixel*Frame) : 0.055
Stream size : 778 MiB (88%)

Audio
ID : 2
Format : AAC LC
Codec ID : mp4a-40-2
Duration : 1 h 12 min
Bit rate mode : Variable
Bit rate : 192 kb/s
Maximum bit rate : 423 kb/s
Channel(s) : 2 channels
Channel layout : L R
Sampling rate : 48.0 kHz
Frame rate : 46.875 FPS (1024 SPF)
Compression mode : Lossy
Stream size : 100 MiB (11%)


720p.Hi.WEB.h264-HEEL 4th June 2020 – 6/4/20

General
Complete name : 720p.Hi.WEB.h264-HEEL.mp4
Format : MPEG-4
Format profile : Base Media
Codec ID : isom (isom/iso2/avc1/mp41)
File size : 1.80 GiB
Duration : 1 h 12 min
Overall bit rate mode : Variable

Video
ID : 1
Format : AVC
Duration : 1 h 12 min
Bit rate : 3 372 kb/s
Width : 1 280 pixels
Height : 720 pixels
Display aspect ratio : 16:9
Frame rate mode : Constant
Frame rate : 30.000 FPS
Color space : YUV
Chroma subsampling : 4:2:0
Bit depth : 8 bits
Scan type : Progressive
Bits/(Pixel*Frame) : 0.122
Stream size : 1.70 GiB (94%)

Audio
Format : AAC LC
Codec ID : mp4a-40-2
Duration : 1 h 12 min
Bit rate mode : Variable
Bit rate : 192 kb/s
Maximum bit rate : 423 kb/s
Channel(s) : 2 channels
Channel layout : L R
Sampling rate : 48.0 kHz
Frame rate : 46.875 FPS (1024 SPF)
Compression mode : Lossy
Stream size : 100 MiB (5%)
Default : Yes


1080p.WEB.x264-PFa 4th June 2020 – 6/4/20

General
Complete name : 1080p.WEB.x264-PFa.mkv
Format : Matroska
Format version : Version 4
File size : 4.03 GiB
Duration : 1 h 12 min
Overall bit rate : 7 953 kb/s

Video
Format : AVC
Duration : 1 h 12 min
Bit rate : 7 808 kb/s
Width : 1 920 pixels
Height : 1 080 pixels
Display aspect ratio : 16:9
Frame rate mode : Constant
Frame rate : 30.000 FPS
Color space : YUV
Chroma subsampling : 4:2:0
Bit depth : 8 bits
Scan type : Progressive
Bits/(Pixel*Frame) : 0.126
Stream size : 3.93 GiB (98%)
Default : Yes
Forced : No

Audio
Format : AAC LC
Codec ID : A_AAC-2
Duration : 1 h 12 min
Bit rate : 192 kb/s
Channel(s) : 2 channels
Channel layout : L R
Sampling rate : 48.0 kHz
Frame rate : 46.875 FPS (1024 SPF)
Compression mode : Lossy
Stream size : 100 MiB (2%)


Watch online

download links

Check comments PLz

link For WH Vip Users @ wrestling-home.vip
Subscribe At our Vip Service @ wrestling-home.vip
Uploaded by wrestling-home.com

3 Comments on “WWE NXT UK 2020 06 04 720p / 1080p”

Leave a Reply

Your email address will not be published. Required fields are marked *