WWE NXT UK 2019 11 28 1080p -WH [5 GB]

WWE NXT UK 2019 11 28 1080p WEBRIP x264-WH

DescriptionGeneral
Complete name                    : WWE.NXT.UK.2019.11.28.1080p.WEBRIP.x264-WH.mp4
Format                          : MPEG-4
Format profile                  : Base Media
Codec ID                        : isom
File size                        : 5.09 GiB
Duration                        : 59mn 54s
Overall bit rate                : 12.2 Mbps
Writing application              : Lavf56.15.102

Video
ID                              : 1
Format                          : AVC
Format/Info                      : Advanced Video Codec
Format profile                  : [email protected]
Format settings, CABAC          : No
Format settings, ReFrames        : 2 frames
Codec ID                        : avc1
Codec ID/Info                    : Advanced Video Coding
Duration                        : 59mn 54s
Bit rate mode                    : Variable
Bit rate                        : 12.0 Mbps
Width                            : 1 920 pixels
Height                          : 1 080 pixels
Display aspect ratio            : 16:9
Frame rate mode                  : Constant
Frame rate                      : 29.970 fps
Color space                      : YUV
Chroma subsampling              : 4:2:0
Bit depth                        : 8 bits
Scan type                        : Progressive
Bits/(Pixel*Frame)              : 0.193
Stream size                      : 5.03 GiB (99%)
Writing library                  : x264 core 142

Audio
ID                              : 2
Format                          : AAC
Format/Info                      : Advanced Audio Codec
Format profile                  : LC
Codec ID                        : 40
Duration                        : 59mn 54s
Bit rate mode                    : Variable
Bit rate                        : 152 Kbps
Maximum bit rate                : 224 Kbps
Channel(s)                      : 2 channels
Channel positions                : Front: L R
Sampling rate                    : 44.1 KHz
Compression mode                : Lossy
Stream size                      : 65.1 MiB (1%)


dropapk
https://dropapk.to/wuxbctjg7960

fileup
https://fileup.cc/8nc8a7o6k2op

nitroflare
http://nitroflare.com/view/E3862BB9F6A286E

rapidgator
https://rapidgator.net/file/d6a1828979cf222efa69ae9b0cc0f7d3

dropapk
https://dropapk.to/ux53riv6yxge
https://dropapk.to/p728v011z976
https://dropapk.to/a0wvogf6r8kt
https://dropapk.to/dfzm5wzhzu39
katfile
http://katfile.com/wnbylgnoi9f1
http://katfile.com/uymcfyf0uws9
http://katfile.com/fwpr37uc5mka
http://katfile.com/1x6df0bdxj83
nitroflare
http://nitroflare.com/view/37FAB770DBC9669
http://nitroflare.com/view/232DD9AABD2659E
http://nitroflare.com/view/B9E2E0012E05F21
http://nitroflare.com/view/7BB87B10E7FFF2C

Leave a Reply

Your email address will not be published. Required fields are marked *