WWE NXT UK 2019 05 29 WEB h264-HEEL

WWE NXT UK 2019 05 29 WEB h264-HEEL

WWE NXT UK 2019 05 29 WEB h264-HEEL

Pete Dunne enlists some old allies to help combat WALTER and his acquaintances. Nina Samuels challenges Toni Storm.

Title: WWE.NXT.UK.2019.05.29.WEB.h264-HEEL
Released: 2019.05.29
Source: WWE Network
Resolution: 896 x 504 @ 29.970 FPS
Video: H.264 @ 1800 kbps
Audio: AAC @ 96 kbps
Size: 745 MB
Runtime: 57mn 45sec

General
Complete name : WWE.NXT.UK.2019.05.29.WEB.h264-HEEL.mp4
Format : MPEG-4
Format profile : Base Media
Codec ID : isom (isom/iso2/avc1/mp41)
File size : 745 MiB
Duration : 57 min 45 s
Overall bit rate mode : Variable
Overall bit rate : 1 804 kb/s
Writing application : Lavf58.26.101

Video
ID : 1
Format : AVC
Format/Info : Advanced Video Codec
Format profile : [email protected]
Format settings : CABAC / 4 Ref Frames
Format settings, CABAC : Yes
Format settings, Reference : 4 frames
Codec ID : avc1
Codec ID/Info : Advanced Video Coding
Duration : 57 min 45 s
Bit rate mode : Constant
Bit rate : 1 704 kb/s
Width : 896 pixels
Height : 504 pixels
Display aspect ratio : 16:9
Frame rate mode : Constant
Frame rate : 29.970 (30000/1001) FPS
Color space : YUV
Chroma subsampling : 4:2:0
Bit depth : 8 bits
Scan type : Progressive
Bits/(Pixel*Frame) : 0.126
Stream size : 704 MiB (94%)
Codec configuration box : avcC

Audio
ID : 2
Format : AAC LC
Format/Info : Advanced Audio Codec Low Complexity
Codec ID : mp4a-40-2
Duration : 57 min 45 s
Bit rate mode : Variable
Bit rate : 93.5 kb/s
Maximum bit rate : 99.4 kb/s
Channel(s) : 2 channels
Channel layout : L R
Sampling rate : 48.0 kHz
Frame rate : 46.875 FPS (1024 SPF)
Compression mode : Lossy
Stream size : 38.6 MiB (5%)
Language : English
Default : Yes
Alternate group : 1

Text
ID : 1-CC1
Format : EIA-608
Muxing mode : SCTE 128 / DTVCC Transport
Muxing mode, more info : Muxed in Video #1
Duration : 57 min 45 s
Bit rate mode : Constant
Stream size : 0.00 Byte (0%)
Encoded stream size : 0.00 Byte (0%)
CaptionServiceName : CC1

https://1fichier.com/?ra4et5qycozr28exwmjy
https://anonfile.com/lap1s5tdn2
https://bayfiles.com/62pesbt1n4
https://bitster.cz/file/87e98c
https://ddl.to/faavnac97rrf
http://dl.free.fr/wxsagFws7
https://file.bz/wbp0s6ten1
http://www.filefactory.com/file/27vhdsdmdyu1
https://filerio.in/13ri34321r7z
https://filescdn.net/pnsgq1c9i57i
https://multiup.org/download/e24f466bea63516967f3e3babcf9490d
http://www.netshare.cz/acf41c73a28214cd
http://nitroflare.com/view/C465F7255696088
https://openload.co/f/mcRZXddN1IU
https://turbobit.net/zr2hq7w6czc0.html
https://uploadgig.com/file/download/11d52Fa5636CFba2

Leave a Reply

Your email address will not be published. Required fields are marked *