WWE NXT UK 2019 05 29 720p WEB h264-HEEL

WWE NXT UK 2019 05 29 720p WEB h264-HEEL

WWE NXT UK 2019 05 29 720p WEB h264-HEEL

Pete Dunne enlists some old allies to help combat WALTER and his acquaintances. Nina Samuels challenges Toni Storm.

Title: WWE.NXT.UK.2019.05.29.720p.WEB.h264-HEEL
Released: 2019.05.29
Source: WWE Network
Resolution: 1280 x 720 @ 29.970 FPS
Video: H.264 @ 4500 kbps
Audio: AAC @ 128 kbps
Size: 1.81 GB
Runtime: 57mn 45sec

General
Complete name : WWE.NXT.UK.2019.05.29.720p.WEB.h264-HEEL.mp4
Format : MPEG-4
Format profile : Base Media
Codec ID : isom (isom/iso2/avc1/mp41)
File size : 1.82 GiB
Duration : 57 min 45 s
Overall bit rate mode : Variable
Overall bit rate : 4 503 kb/s
Writing application : Lavf58.26.101

Video
ID : 1
Format : AVC
Format/Info : Advanced Video Codec
Format profile : [email protected]
Format settings : CABAC / 4 Ref Frames
Format settings, CABAC : Yes
Format settings, Reference : 4 frames
Codec ID : avc1
Codec ID/Info : Advanced Video Coding
Duration : 57 min 45 s
Bit rate mode : Constant
Bit rate : 4 372 kb/s
Width : 1 280 pixels
Height : 720 pixels
Display aspect ratio : 16:9
Frame rate mode : Constant
Frame rate : 29.970 (30000/1001) FPS
Color space : YUV
Chroma subsampling : 4:2:0
Bit depth : 8 bits
Scan type : Progressive
Bits/(Pixel*Frame) : 0.158
Stream size : 1.76 GiB (97%)
Codec configuration box : avcC

Audio
ID : 2
Format : AAC LC
Format/Info : Advanced Audio Codec Low Complexity
Codec ID : mp4a-40-2
Duration : 57 min 45 s
Bit rate mode : Variable
Bit rate : 125 kb/s
Maximum bit rate : 127 kb/s
Channel(s) : 2 channels
Channel layout : L R
Sampling rate : 48.0 kHz
Frame rate : 46.875 FPS (1024 SPF)
Compression mode : Lossy
Stream size : 51.8 MiB (3%)
Language : English
Default : Yes
Alternate group : 1

Text
ID : 1-CC1
Format : EIA-608
Muxing mode : SCTE 128 / DTVCC Transport
Muxing mode, more info : Muxed in Video #1
Duration : 57 min 45 s
Bit rate mode : Constant
Stream size : 0.00 Byte (0%)
Encoded stream size : 0.00 Byte (0%)
CaptionServiceName : CC1

https://1fichier.com/?c0so8mj585u59ucnku3c
https://anonfile.com/13obs9t3n3
https://bayfiles.com/41pcset6na
https://bitster.cz/file/c149c2
https://ddl.to/i0ruxql0een5
http://dl.free.fr/gDuU3QB3J
https://file.bz/Sbo7scten8
https://filerio.in/edzd9cp26f26
https://filescdn.net/er38kzto1ere
https://multiup.org/download/5dab20a0d23f889d9a90456058076a39
http://www.netshare.cz/cf5df9fefb6bc6b3
http://nitroflare.com/view/AE863CFB4661464
https://openload.co/f/RZO1DWc3xKc
https://turbobit.net/wnnpxsxwssow.html
https://uploadgig.com/file/download/d6df78122b01bf32

One Comment on “WWE NXT UK 2019 05 29 720p WEB h264-HEEL”

Leave a Reply

Your email address will not be published. Required fields are marked *