WWE.NXT.UK.2019.03.27.WEB.HEVC.x265-WH

WWE.NXT.UK.2019.03.27.WEB.HEVC.x265-WH

WWE.NXT.UK.2019.03.27.WEB.HEVC.x265-WH

General
Complete name : WWE.NXT.UK.2019.03.27.WEB.HEVC.x265-WH.mp4
Format : MPEG-4
Format profile : QuickTime
Codec ID : qt
File size : 593 MiB
Duration : 1h 5mn
Overall bit rate : 1 262 Kbps
Writing application : Lavf55.33.100

Video
ID : 1
Format : hev1
Codec ID : hev1
Duration : 1h 5mn
Bit rate mode : Variable
Bit rate : 1 129 Kbps
Width : 712 pixels
Height : 400 pixels
Display aspect ratio : 16:9
Frame rate mode : Constant
Frame rate : 25.000 fps
Bits/(Pixel*Frame) : 0.159
Stream size : 530 MiB (89%)
Language : English

Audio
ID : 2
Format : AAC
Format/Info : Advanced Audio Codec
Format profile : LC
Codec ID : 40
Duration : 1h 5mn
Bit rate mode : Constant
Bit rate : 128 Kbps
Channel(s) : 2 channels
Channel positions : Front: L R
Sampling rate : 44.1 KHz
Compression mode : Lossy
Stream size : 60.1 MiB (10%)
Language : English

ddl.to

https://shrt10.com/bUjTlMJ

dl.free.fr

https://shrt10.com/d4oaVUX

filefactory.com

https://shrt10.com/LpvJnLvR

filescdn.net

https://shrt10.com/ggYD

rapidgator.net

https://shrt10.com/zGwJXD

uploadgig.com

https://shrt10.com/JGYW4hu

uptobox.com

https://shrt10.com/jdxX

Leave a Reply

Your email address will not be published. Required fields are marked *