WWE NXT 2019 11 27 1080p HDTV x264-WH [8.5 GB]

WWE NXT 2019 11 27 1080p HDTV x264-WH [8.5 GB]

DescriptionWWE.NXT.2019.11.27.1080p.HDTV.x264-WH

General
Complete name                    :WWE.NXT.2019.11.27.1080p.HDTV.x264-WH.mp4
Format                          : MPEG-4
Format profile                  : Base Media
Codec ID                        : isom
File size                        : 8.40 GiB
Duration                        : 1h 38mn
Overall bit rate                : 12.2 Mbps
Writing application              : Lavf56.15.102

Video
ID                              : 1
Format                          : AVC
Format/Info                      : Advanced Video Codec
Format profile                  : [email protected]
Format settings, CABAC          : No
Format settings, ReFrames        : 2 frames
Codec ID                        : avc1
Codec ID/Info                    : Advanced Video Coding
Duration                        : 1h 38mn
Bit rate mode                    : Variable
Bit rate                        : 12.0 Mbps
Width                            : 1 920 pixels
Height                          : 1 080 pixels
Display aspect ratio            : 16:9
Frame rate mode                  : Constant
Frame rate                      : 29.970 fps
Color space                      : YUV
Chroma subsampling              : 4:2:0
Bit depth                        : 8 bits
Scan type                        : Progressive
Bits/(Pixel*Frame)              : 0.193
Stream size                      : 8.28 GiB (99%)
Writing library                  : x264 core 142

Audio
ID                              : 2
Format                          : AAC
Format/Info                      : Advanced Audio Codec
Format profile                  : LC
Codec ID                        : 40
Duration                        : 1h 38mn
Bit rate mode                    : Variable
Bit rate                        : 152 Kbps
Maximum bit rate                : 224 Kbps
Channel(s)                      : 2 channels
Channel positions                : Front: L R
Sampling rate                    : 44.1 KHz
Compression mode                : Lossy
Stream size                      : 107 MiB (1%)
Language                        : English



fileup
https://fileup.cc/2o003j5f7lrj

nitroflare
http://nitroflare.com/view/26145B248A77835

rapidgator
https://rapidgator.net/file/a0fe76502a51224622504c62d4e87586




dropapk
https://dropapk.to/0depu2odzeq0
https://dropapk.to/11phc70yduqw
https://dropapk.to/e0spy2qc8myx
https://dropapk.to/d0a3k7relwxa
https://dropapk.to/6xk7xmyhdp71
https://dropapk.to/cemykbaqt3rh

earn4files
https://earn4files.com/bbu097u46kiz
https://earn4files.com/mck0s5wd48ur
https://earn4files.com/me7ubg1aj7ll
https://earn4files.com/8fkyc67nnbhr
https://earn4files.com/b1ileh3fdlpy
https://earn4files.com/gi6d2993821p

katfile
http://katfile.com/c7ndbf85a8j8
http://katfile.com/9him5fxgvgl1
http://katfile.com/w5abwx3zt62k
http://katfile.com/bt332czpf28b
http://katfile.com/107mmpwq9u53
http://katfile.com/lndn4tu337d9

nitroflare
http://nitroflare.com/view/0F4879C3ED03B67
http://nitroflare.com/view/6972ED3D9D17F27
http://nitroflare.com/view/6D28A9E1ABC0029
http://nitroflare.com/view/6FDA47132BF2718
http://nitroflare.com/view/3DA8B955BB9DE8B
http://nitroflare.com/view/8D2BAF0373DB382

Leave a Reply

Your email address will not be published. Required fields are marked *