WWE NXT 2019 11 27 1080i HDTV-WH [14.5 GB]

WWE NXT 2019 11 27 1080i HDTV-WH [14.5 GB]

General
Complete name : WWE.NXT.2019.11.27.1080i.HDTV-WH.ts
Format : MPEG-TS
Format/Info : Advanced Video Codec
File size : 14.6 GiB
Duration : 1h 48mn
Overall bit rate : 19.2 Mbps

Video
ID : 4113 (0x1011)
Menu ID : 1 (0x1)
Format : AVC
Format/Info : Advanced Video Codec
Format profile : [email protected]
Format settings, CABAC : Yes
Format settings, ReFrames : 2 frames
Format settings, GOP : M=1, N=15
Codec ID : 27
Duration : 1h 38mn
Bit rate : 17.6 Mbps
Width : 1 920 pixels
Height : 1 080 pixels
Display aspect ratio : 16:9
Frame rate : 29.970 fps
Color space : YUV
Chroma subsampling : 4:2:0
Bit depth : 8 bits
Scan type : MBAFF
Bits/(Pixel*Frame) : 0.283
Stream size : 12.1 GiB (83%)

Audio
ID : 4352 (0x1100)
Menu ID : 1 (0x1)
Format : AC-3
Format/Info : Audio Coding 3
Mode extension : CM (complete main)
Codec ID : 129
Duration : 1h 38mn
Bit rate mode : Constant
Bit rate : 640 Kbps
Channel(s) : 6 channels
Channel positions : Front: L C R, Side: L R, LFE
Sampling rate : 48.0 KHz
Bit depth : 16 bits
Compression mode : Lossy
Stream size : 452 MiB (3%)
Language : English

nitroflare
https://nitroflare.com/view/A4C791E69BFE2CE

fileup
https://fileup.cc/9b9w3kp2oy5o

rapidgator
https://rapidgator.net/file/d2986fdee50c04302d283c83ab4578e3


fileup
https://fileup.cc/axlk5dyf9pp3
https://fileup.cc/o3bwu9ng0ake
https://fileup.cc/1b5oqzmr8ix4

nitroflare
http://nitroflare.com/view/06E71E7FC365E16
http://nitroflare.com/view/63AB3C00D55ED0D
http://nitroflare.com/view/28B80677F13371F

rapidgator
https://rapidgator.net/file/12b4d51192500a33d2f20179bcb969b7
https://rapidgator.net/file/91d81093f73e05f289cf7b647ac9bf8f
https://rapidgator.net/file/21bf2b5048b958b20729114f2e48a9e4

Leave a Reply

Your email address will not be published. Required fields are marked *