WWE NXT 2019 05 29 720p WEB h264-HEEL

WWE NXT 2019 05 29 720p WEB h264-HEEL

WWE NXT 2019 05 29 720p WEB h264-HEEL

Before their NXT Tag Team Title Ladder Match at TakeOver, Oney Lorcan and Danny Burch battle The Forgotten Sons!

Title: WWE.NXT.2019.05.29.720p.WEB.h264-HEEL
Released: 2019.05.29
Source: WWE Network
Resolution: 1280 x 720 @ 29.970 FPS
Video: H.264 @ 4500 kbps
Audio: AAC @ 128 kbps
Size: 1.58 GB
Runtime: 50mn 27sec

General
Complete name : WWE.NXT.2019.05.29.720p.WEB.h264-HEEL.mp4
Format : MPEG-4
Format profile : Base Media
Codec ID : isom (isom/iso2/avc1/mp41)
File size : 1.59 GiB
Duration : 50 min 27 s
Overall bit rate mode : Constant
Overall bit rate : 4 504 kb/s
Writing application : Lavf58.26.101

Video
ID : 1
Format : AVC
Format/Info : Advanced Video Codec
Format profile : [email protected]
Format settings : CABAC / 4 Ref Frames
Format settings, CABAC : Yes
Format settings, Reference : 4 frames
Codec ID : avc1
Codec ID/Info : Advanced Video Coding
Duration : 50 min 27 s
Duration_FirstFrame : 2 ms
Bit rate mode : Constant
Bit rate : 4 372 kb/s
Width : 1 280 pixels
Height : 720 pixels
Display aspect ratio : 16:9
Frame rate mode : Constant
Frame rate : 29.970 (30000/1001) FPS
Color space : YUV
Chroma subsampling : 4:2:0
Bit depth : 8 bits
Scan type : Progressive
Bits/(Pixel*Frame) : 0.158
Stream size : 1.54 GiB (97%)
Codec configuration box : avcC

Audio
ID : 2
Format : AAC LC
Format/Info : Advanced Audio Codec Low Complexity
Codec ID : mp4a-40-2
Duration : 50 min 27 s
Bit rate mode : Constant
Bit rate : 125 kb/s
Channel(s) : 2 channels
Channel layout : L R
Sampling rate : 48.0 kHz
Frame rate : 46.875 FPS (1024 SPF)
Compression mode : Lossy
Stream size : 45.3 MiB (3%)
Language : English
Default : Yes
Alternate group : 1

Text
ID : 1-CC1
Format : EIA-608
Muxing mode : SCTE 128 / DTVCC Transport
Muxing mode, more info : Muxed in Video #1
Duration : 50 min 27 s
Bit rate mode : Constant
Stream size : 0.00 Byte (0%)
Encoded stream size : 0.00 Byte (0%)
CaptionServiceName : CC1

https://1fichier.com/?3vhtiqr9y49n610uiqg3
https://anonfile.com/KfF1t3t8n5
https://bayfiles.com/F5F5t1tcnb
https://bitster.cz/file/39eab9
https://ddl.to/2nxob18pva6i
http://dl.free.fr/v1zipSgMu
https://file.bz/J3F7tbtbnf
http://www.filefactory.com/file/6eusks94rhtt
https://filerio.in/tizf6h9nrfks
https://filescdn.net/lwlkudw8duey
https://multiup.org/download/315c47fd6a5b78f4d2fea851c50f2dde
http://www.netshare.cz/652004ee96dc37e7
http://nitroflare.com/view/D54E886D70FED25
https://openload.co/f/8w5HUMevl6s
https://turbobit.net/egva014slk8q.html
https://uploadgig.com/file/download/b140298Fca2a0A3c

One Comment on “WWE NXT 2019 05 29 720p WEB h264-HEEL”

Leave a Reply

Your email address will not be published. Required fields are marked *