WWE Money in the Bank 2019 1080i HDTV MULTI

WWE Money in the Bank 2019 1080i HDTV MULTI / TrollHD [36.28 GB]

WWE Money in the Bank 2019 1080i HDTV MULTI / TrollHD

SIZE36.28 GB

Audio * English / Hindi / Chinese / Spanish / Portuguese / German / Russian / Japanese

General
Complete name                            : WWE PPV – Money in the Bank (2019) 1080i HDTV Backhaul MPA2.0 H.264-TrollHD.mkv
Format                                  : Matroska
Format version                          : Version 4
File size                                : 36.3 GiB
Duration                                : 3 h 38 min
Overall bit rate                        : 23.8 Mb/s
Encoded date                            : UTC 2019-05-20 03:58:01
Writing application                      : mkvmerge v30.0.0 (‘Interstellar’) 64-bit
Writing library                          : libebml v1.3.6 + libmatroska v1.4.9

Video
ID                                      : 1
Format                                  : AVC
Format/Info                              : Advanced Video Codec
Format profile                          : High 4:2:[email protected]
Format settings                          : CABAC / 4 Ref Frames
Format settings, CABAC                  : Yes
Format settings, RefFrames              : 4 frames
Codec ID                                : V_MPEG4/ISO/AVC
Duration                                : 3 h 38 min
Bit rate                                : 21.6 Mb/s
Width                                    : 1 920 pixels
Height                                  : 1 080 pixels
Display aspect ratio                    : 16:9
Frame rate mode                          : Variable
Frame rate                              : 59.940 FPS
Original frame rate                      : 29.970 (30000/1001) FPS
Color space                              : YUV
Chroma subsampling                      : 4:2:2
Bit depth                                : 8 bits
Scan type                                : Interlaced
Scan type, store method                  : Separated fields
Scan order                              : Top Field First
Bits/(Pixel*Frame)                      : 0.174
Stream size                              : 32.9 GiB (91%)
Default                                  : Yes
Forced                                  : No
Color range                              : Limited
Color primaries                          : BT.709
Transfer characteristics                : BT.709
Matrix coefficients                      : BT.709

Audio #1
ID                                      : 2
Format                                  : MPEG Audio
Format version                          : Version 1
Format profile                          : Layer 2
Codec ID                                : A_MPEG/L2
Codec ID/Hint                            : MP2
Duration                                : 3 h 38 min
Bit rate mode                            : Constant
Bit rate                                : 384 kb/s
Channel(s)                              : 2 channels
Sampling rate                            : 48.0 kHz
Frame rate                              : 41.667 FPS (1152 SPF)
Compression mode                        : Lossy
Delay relative to video                  : -2 s 8 ms
Stream size                              : 600 MiB (2%)
Language                                : English
Default                                  : Yes
Forced                                  : No

Audio #2
ID                                      : 3
Format                                  : MPEG Audio
Format version                          : Version 1
Format profile                          : Layer 2
Codec ID                                : A_MPEG/L2
Codec ID/Hint                            : MP2
Duration                                : 3 h 38 min
Bit rate mode                            : Constant
Bit rate                                : 256 kb/s
Channel(s)                              : 2 channels
Sampling rate                            : 48.0 kHz
Frame rate                              : 41.667 FPS (1152 SPF)
Compression mode                        : Lossy
Delay relative to video                  : -1 s 975 ms
Stream size                              : 400 MiB (1%)
Language                                : Hindi
Default                                  : No
Forced                                  : No

Audio #3
ID                                      : 4
Format                                  : MPEG Audio
Format version                          : Version 1
Format profile                          : Layer 2
Codec ID                                : A_MPEG/L2
Codec ID/Hint                            : MP2
Duration                                : 3 h 38 min
Bit rate mode                            : Constant
Bit rate                                : 256 kb/s
Channel(s)                              : 2 channels
Sampling rate                            : 48.0 kHz
Frame rate                              : 41.667 FPS (1152 SPF)
Compression mode                        : Lossy
Delay relative to video                  : -1 s 975 ms
Stream size                              : 400 MiB (1%)
Language                                : Chinese
Default                                  : No
Forced                                  : No

Audio #4
ID                                      : 5
Format                                  : MPEG Audio
Format version                          : Version 1
Format profile                          : Layer 2
Codec ID                                : A_MPEG/L2
Codec ID/Hint                            : MP2
Duration                                : 3 h 38 min
Bit rate mode                            : Constant
Bit rate                                : 256 kb/s
Channel(s)                              : 2 channels
Sampling rate                            : 48.0 kHz
Frame rate                              : 41.667 FPS (1152 SPF)
Compression mode                        : Lossy
Delay relative to video                  : -1 s 999 ms
Stream size                              : 400 MiB (1%)
Language                                : Spanish
Default                                  : No
Forced                                  : No

Audio #5
ID                                      : 6
Format                                  : MPEG Audio
Format version                          : Version 1
Format profile                          : Layer 2
Codec ID                                : A_MPEG/L2
Codec ID/Hint                            : MP2
Duration                                : 3 h 38 min
Bit rate mode                            : Constant
Bit rate                                : 256 kb/s
Channel(s)                              : 2 channels
Sampling rate                            : 48.0 kHz
Frame rate                              : 41.667 FPS (1152 SPF)
Compression mode                        : Lossy
Delay relative to video                  : -1 s 989 ms
Stream size                              : 400 MiB (1%)
Language                                : Portuguese
Default                                  : No
Forced                                  : No

Audio #6
ID                                      : 7
Format                                  : MPEG Audio
Format version                          : Version 1
Format profile                          : Layer 2
Codec ID                                : A_MPEG/L2
Codec ID/Hint                            : MP2
Duration                                : 3 h 38 min
Bit rate mode                            : Constant
Bit rate                                : 256 kb/s
Channel(s)                              : 2 channels
Sampling rate                            : 48.0 kHz
Frame rate                              : 41.667 FPS (1152 SPF)
Compression mode                        : Lossy
Delay relative to video                  : -1 s 994 ms
Stream size                              : 400 MiB (1%)
Language                                : German
Default                                  : No
Forced                                  : No

Audio #7
ID                                      : 8
Format                                  : MPEG Audio
Format version                          : Version 1
Format profile                          : Layer 2
Codec ID                                : A_MPEG/L2
Codec ID/Hint                            : MP2
Duration                                : 3 h 38 min
Bit rate mode                            : Constant
Bit rate                                : 256 kb/s
Channel(s)                              : 2 channels
Sampling rate                            : 48.0 kHz
Frame rate                              : 41.667 FPS (1152 SPF)
Compression mode                        : Lossy
Delay relative to video                  : -2 s 9 ms
Stream size                              : 400 MiB (1%)
Language                                : Russian
Default                                  : No
Forced                                  : No

Audio #8
ID                                      : 9
Format                                  : MPEG Audio
Format version                          : Version 1
Format profile                          : Layer 2
Codec ID                                : A_MPEG/L2
Codec ID/Hint                            : MP2
Duration                                : 3 h 38 min
Bit rate mode                            : Constant
Bit rate                                : 256 kb/s
Channel(s)                              : 2 channels
Sampling rate                            : 48.0 kHz
Frame rate                              : 41.667 FPS (1152 SPF)
Compression mode                        : Lossy
Delay relative to video                  : -2 s 9 ms
Stream size                              : 400 MiB (1%)
Language                                : Japanese
Default                                  : No
Forced                                  : No

dOWNLOAD @ 1st COMMENT

2 Comments on “WWE Money in the Bank 2019 1080i HDTV MULTI”

  1. WWE Money in the Bank 2019 1080i HDTV MULTI / TrollHD [36.28 GB]

    [15 HOSTS] DID YOU SEE THIS BEFORE !!!!!

    5 GB [8 PARTS] // INTERCHANGEABLE LINKS

    1fichier
    https://1fichier.com/?mrvu00udz4f80kqm992j
    https://1fichier.com/?pyh4ui1367tsfhk6l88w
    https://1fichier.com/?05gcj214ltqdurji64sa
    https://1fichier.com/?l7vd3m026ctxy0jg3yaa
    https://1fichier.com/?th4ggw54poy5lykq3x2a
    https://1fichier.com/?g6wbe4pgwgfdfq40mlfs
    https://1fichier.com/?yhqzyqgpyywczz1e705u
    https://1fichier.com/?tsyic7y5xv31oinvut1y

    anonfile
    https://anonfile.com/Ham9oes9nf
    https://anonfile.com/uajbp1s3n5
    https://anonfile.com/CcOdpcscn5
    https://anonfile.com/m0Uepes6nc
    https://anonfile.com/FcY0pcs2nb
    https://anonfile.com/zeg0qfsfn8
    https://anonfile.com/9dl9q2s3n7
    https://anonfile.com/pcl3q7s1n4

    bayfiles
    https://bayfiles.com/l1m0o3sene
    https://bayfiles.com/1fs0pcsen4
    https://bayfiles.com/ofT7p8s2n8
    https://bayfiles.com/TeY4p1s2n3
    https://bayfiles.com/02f8q0s5nd
    https://bayfiles.com/e5k6q2s1ne
    https://bayfiles.com/3cm7qbs6na
    https://bayfiles.com/P0l0q3s9n7

    bitster
    https://bitster.cz/file/89ae0f
    https://bitster.cz/file/2123bc
    https://bitster.cz/file/277170
    https://bitster.cz/file/022a5c
    https://bitster.cz/file/f38381
    https://bitster.cz/file/3c9062
    https://bitster.cz/file/2712e9
    https://bitster.cz/file/8f8773

    dl.free.fr
    http://dl.free.fr/ipW380m5H
    http://dl.free.fr/mII2Fy1P7
    http://dl.free.fr/o3SH8YDXc
    http://dl.free.fr/k0eRfUIjs
    http://dl.free.fr/ngpPDAeqT
    http://dl.free.fr/jksJUv6Qo
    http://dl.free.fr/i3FFzPWnp
    http://dl.free.fr/ctZpUu13E

    file.bz
    https://file.bz/5am3o3s4n5
    https://file.bz/I9k4pdsdnf
    https://file.bz/WfR2p2sdnb
    https://file.bz/33Z4p1sfn0
    https://file.bz/Tefbq2send
    https://file.bz/keldq9s1n3
    https://file.bz/ffmcqesfn6
    https://file.bz/Yel2q0sbn1

    filerio
    https://filerio.in/xpych7obrp0s
    https://filerio.in/uzk371ggp6uu
    https://filerio.in/mtlmh7itfoh7
    https://filerio.in/56x5wasksf9z
    https://filerio.in/p2skh02i6a94
    https://filerio.in/m7sz5hq26tsl
    https://filerio.in/rht0ely5dcdx
    https://filerio.in/zzso3bcc7e26

    filescdn
    https://filescdn.net/q2srqemt98vp
    https://filescdn.net/mwds8911iw7y
    https://filescdn.net/iszcjw53g7tl
    https://filescdn.net/ncqqwpkdmru9
    https://filescdn.net/j4aqaxwwcl0a
    https://filescdn.net/1bht6q1dk3aa
    https://filescdn.net/f8arb6nrd6so
    https://filescdn.net/7g4m50ujs9vp

    nitroflare
    http://nitroflare.com/view/DF1B377331F5EEA
    http://nitroflare.com/view/7967350701F60E1
    http://nitroflare.com/view/B2767934187E8F5
    http://nitroflare.com/view/9625E04656A3D60
    http://nitroflare.com/view/94D0DDF7945072E
    http://nitroflare.com/view/16E078A40E0A52A
    http://nitroflare.com/view/6063E7F05CB8A9F
    http://nitroflare.com/view/B6CBE902CB0B2DC

    Rapidgator
    https://rg.to/file/1c5ed248564839109bd30acd43f73163
    https://rg.to/file/99890bc136521f2dfa64f5441e20c984
    https://rg.to/file/0be955840ac07517504006a91a137309
    https://rg.to/file/f40bbf5fec51311a3eb96523fe835327
    https://rg.to/file/1947f1afd71433343998212761d7587d
    https://rg.to/file/44393a8afb2ef5290e484091effe5543
    https://rg.to/file/83f46ea6a7598d8b3a1486128e261ee8

    turbobit
    https://turbobit.net/ev8sselrjuw2.html
    https://turbobit.net/tbe92gwprw80.html
    https://turbobit.net/re5rhkwy8nnz.html
    https://turbobit.net/eish9e1m8ary.html
    https://turbobit.net/im2g5vww6j3i.html
    https://turbobit.net/wi40y3gsnt80.html
    https://turbobit.net/ebckke9wujjy.html
    https://turbobit.net/3ekssqkilvy2.html

    uploadgig
    https://uploadgig.com/file/download/93fc71f157737302
    https://uploadgig.com/file/download/4d9c7DCadac877c8
    https://uploadgig.com/file/download/54543a2375f46395
    https://uploadgig.com/file/download/A9a408ff5e432249
    https://uploadgig.com/file/download/5Eb81994E4d7072e
    https://uploadgig.com/file/download/67Aa3d15d2Cb4d4E
    https://uploadgig.com/file/download/DBdbad751A1815F2
    https://uploadgig.com/file/download/FCe761dfc7ff2e05

    multiup
    https://multiup.org/download/520d694fdf42d2c329eb7e15bcf3fd71
    https://multiup.org/download/3825fcb7264241a4d4f46520630279b0
    https://multiup.org/download/1d00bfe9d2378bfcf752bfcb952ce22d
    https://multiup.org/download/b0ca192dd275aca62a201e86315c6147
    https://multiup.org/download/dc7cdd96bccf975fad1267534aafc758
    https://multiup.org/download/fc1a833accda3d836b554999ff686b6a
    https://multiup.org/download/c6329a2aa33c547f074a6b6ac5cb098a
    https://multiup.org/download/7ce307a47e87f0852e94d86828ec6b58

Leave a Reply

Your email address will not be published. Required fields are marked *