WWE.Monday.Night.Raw.2019.03.18.HDTV.h264-WH

WWE.Monday.Night.Raw.2019.03.18.HDTV.h264-WH

General
Complete name : WWE.Monday.Night.Raw.2019.03.18.HDTV.h264-WH.mp4
Format : MPEG-4
Format profile : Base Media / Version 2
Codec ID : mp42
File size : 1.20 GiB
Duration : 2h 9mn
Overall bit rate : 1 333 Kbps

Video
ID : 1
Format : AVC
Format/Info : Advanced Video Codec
Format profile : [email protected]
Format settings, CABAC : Yes
Format settings, ReFrames : 2 frames
Muxing mode : Container [email protected]
Codec ID : avc1
Codec ID/Info : Advanced Video Coding
Duration : 2h 9mn
Bit rate mode : Variable
Bit rate : 1 200 Kbps
Width : 704 pixels
Height : 412 pixels
Display aspect ratio : 16:9
Frame rate mode : Constant
Frame rate : 25.000 fps
Color space : YUV
Chroma subsampling : 4:2:0
Bit depth : 8 bits
Scan type : Progressive
Bits/(Pixel*Frame) : 0.165
Stream size : 1.08 GiB (90%)
Language : English

Audio
ID : 2
Format : AC-3
Format/Info : Audio Coding 3
Mode extension : CM (complete main)
Codec ID : ac-3
Duration : 2h 9mn
Bit rate mode : Constant
Bit rate : 128 Kbps
Channel(s) : 2 channels
Channel positions : Front: L R
Sampling rate : 44.1 KHz
Bit depth : 16 bits
Compression mode : Lossy
Stream size : 118 MiB (10%)
Language : English

https://1fichier.com/?0dtict4u7freudco8jil
https://anonfile.com/YeufOcS8m2
https://ddl.to/xd5rz1lyotxo
http://dl.free.fr/icjoPDQqt
https://filerio.in/01dak55nhmek
http://filestore.to/?d=PQQ9QRKANI

Leave a Reply

Your email address will not be published. Required fields are marked *