WWE Monday Night Raw 2020 06 15 1080i HDTV -WH

WWE Monday Night Raw 2020 06 15 1080i HDTV -WH [21.5 GB]

WWE Monday Night Raw 2020 06 15 1080i
  • File Contains WWE RAW Talk !!
  • Fixed Black box At Advs Time , Enjoy

General
ID : 1 (0x1)
Complete name : WWE.Monday.Night.Raw.2020.06.15.1080i.HDTV-WH.ts
Format : MPEG-TS
File size : 22.0 GiB
Duration : 3 h 25 min
Overall bit rate mode : Variable
Overall bit rate : 15.3 Mb/s

Video
ID : 2060 (0x80C)
Menu ID : 1 (0x1)
Format : AVC
Codec ID : 27
Duration : 3 h 25 min
Bit rate : 13.9 Mb/s
Width : 1 920 pixels
Height : 1 080 pixels
Display aspect ratio : 16:9
Frame rate : 25.000 FPS
Color space : YUV
Chroma subsampling : 4:2:0
Bit depth : 8 bits
Scan type : Interlaced
Scan order : Top Field First
Bits/(Pixel*Frame) : 0.269
Stream size : 20.0 GiB (91%)
Color range : Limited
Color primaries : BT.709
Transfer characteristics : BT.709
Matrix coefficients : BT.709

Audio #1
ID : 3060 (0xBF4)
Menu ID : 1 (0x1)
Format : MPEG Audio
Format version : Version 1
Format profile : Layer 2
Codec ID : 3
Duration : 3 h 25 min
Bit rate mode : Constant
Bit rate : 320 kb/s
Channel(s) : 2 channels
Sampling rate : 48.0 kHz
Frame rate : 41.667 FPS (1152 SPF)
Compression mode : Lossy
Stream size : 470 MiB (2%)
Language : English

Audio #2
ID : 4060 (0xFDC)
Menu ID : 1 (0x1)
Format : MPEG Audio
Format version : Version 1
Format profile : Layer 2
Codec ID : 3
Duration : 3 h 25 min
Bit rate mode : Constant
Bit rate : 320 kb/s
Channel(s) : 2 channels
Sampling rate : 48.0 kHz
Frame rate : 41.667 FPS (1152 SPF)
Compression mode : Lossy
Stream size : 470 MiB (2%)
Language : English

WWE Monday Night Raw 2020 06 15 1080i
WWE Monday Night Raw 2020 06 15 1080i
WWE Monday Night Raw 2020 06 15 1080i
WWE Monday Night Raw 2020 06 15 1080i
WWE Monday Night Raw 2020 06 15 1080i

One Comment on “WWE Monday Night Raw 2020 06 15 1080i HDTV -WH”

Leave a Reply

Your email address will not be published. Required fields are marked *