WWE Monday Night RAW 2020 06 01 720p HEVC x265-MeGusta

WWE Monday Night RAW 2020 06 01 720p HEVC x265-MeGusta

General
Complete name : WWE.Monday.Night.RAW.2020.06.01.720p.HEVC.x265-MeGusta.mkv
Format : Matroska
Format version : Version 4
File size : 2.66 GiB
Duration : 2 h 5 min
Overall bit rate : 3 035 kb/s

Video
Format : HEVC
Duration : 2 h 5 min
Bit rate : 2 530 kb/s
Width : 1 280 pixels
Height : 720 pixels
Display aspect ratio : 16:9
Frame rate mode : Variable
Frame rate : 29.930 FPS
Original frame rate : 30.303 FPS
Color space : YUV
Chroma subsampling : 4:2:0
Bit depth : 10 bits
Bits/(Pixel*Frame) : 0.092
Stream size : 2.22 GiB (83%)

Audio
Format : AAC LC
Codec ID : A_AAC-2
Duration : 2 h 5 min
Bit rate : 77.5 kb/s
Channel(s) : 2 channels
Channel layout : L R
Sampling rate : 44.1 kHz
Frame rate : 43.066 FPS (1024 SPF)
Compression mode : Lossy
Stream size : 69.6 MiB (3%)

Info: HOMEPAGETV.comTVDBIMDBScreenShot

One Comment on “WWE Monday Night RAW 2020 06 01 720p HEVC x265-MeGusta”

Leave a Reply

Your email address will not be published. Required fields are marked *