WWE Monday Night Raw 2019 11 11 SZ HDTV x264-WH

WWE Monday Night Raw 2019 11 11 SZ HDTV x264-WH

WWE Monday Night Raw 2019 11 11 SZ HDTV x264-WH
General
Complete name                    :  
WWE.Monday.Night.Raw.2019.11.11.SZ.HDTV.x264-WH.mp4
Format                           : MPEG-4
Format profile                   : Base Media
Codec ID                         : isom
File size                        : 935 MiB
Duration                         : 2h 6mn
Overall bit rate                 : 1 033 Kbps
Encoded date                     : UTC 2019-09-26 20:46:25
Tagged date                      : UTC 2019-09-26 20:46:25
Writing application              : Lavf56.15.102

Video
ID                               : 1
Format                           : AVC
Format/Info                      : Advanced Video Codec
Format profile                   : [email protected]
Format settings, CABAC           : No
Format settings, ReFrames        : 2 frames
Codec ID                         : avc1
Codec ID/Info                    : Advanced Video Coding
Duration                         : 2h 6mn
Bit rate mode                    : Variable
Bit rate                         : 900 Kbps
Width                            : 712 pixels
Height                           : 400 pixels
Display aspect ratio             : 16:9
Frame rate mode                  : Constant
Frame rate                       : 29.970 fps
Color space                      : YUV
Chroma subsampling               : 4:2:0
Bit depth                        : 8 bits
Scan type                        : Progressive
Bits/(Pixel*Frame)               : 0.105
Stream size                      : 813 MiB (87%)
Writing library                  : x264 core 142
Language                         : English
Encoded date                     : UTC 2019-09-26 20:46:25
Tagged date                      : UTC 2019-09-26 20:46:25

Audio
ID                               : 2
Format                           : AAC
Format/Info                      : Advanced Audio Codec
Format profile                   : LC
Codec ID                         : 40
Duration                         : 2h 6mn
Bit rate mode                    : Constant
Bit rate                         : 128 Kbps
Channel(s)                       : 2 channels
Channel positions                : Front: L R
Sampling rate                    : 44.1 KHz
Compression mode                 : Lossy
Stream size                      : 116 MiB (12%)
Language                         : English
Encoded date                     : UTC 2019-09-26 20:46:25
Tagged date                      : UTC 2019-09-26 20:46:25

fileup

https://fileup.cc/w49u7hbsutnj

dropapk

https://dropapk.to/uqqgrfror11j

earn4files
https://earn4files.com/tok1d1hdal2w

nitroflare
http://nitroflare.com/view/D34F959B3CC56E2

rapidgator
https://rapidgator.net/file/7d1c10bd19a5b6fd219232d2df5e9389

uploadgig
https://uploadgig.com/file/download/3Ed5b970Bb80c128

One Comment on “WWE Monday Night Raw 2019 11 11 SZ HDTV x264-WH”

Leave a Reply

Your email address will not be published. Required fields are marked *