WWE Monday Night Raw 2019 09 30 HDTV HEVC x265-WH

WWE Monday Night Raw 2019 09 30 HDTV HEVC x265-WH

dOWNLOAD WWE Monday Night Raw 2019 09 30 HDTV HEVC x265-WH

WWE Monday Night Raw 2019 09 30 HDTV HEVC x265-WH

General
Complete name : WWE.Monday.Night.Raw.2019.09.30.HDTV.HEVC.x265-WH.mp4
Format : MPEG-4
Format profile : Base Media
Codec ID : isom
File size : 1.29 GiB
Duration : 2h 8mn
Overall bit rate : 1 443 Kbps
Encoded date : UTC 2019-09-26 20:46:25
Tagged date : UTC 2019-09-26 20:46:25
Writing application : Lavf56.15.102

Video
ID : 1
Format : hev1
Codec ID : hev1
Duration : 2h 8mn
Bit rate mode : Variable
Bit rate : 1 282 Kbps
Width : 712 pixels
Height : 400 pixels
Display aspect ratio : 16:9
Frame rate mode : Constant
Frame rate : 29.970 fps
Bits/(Pixel*Frame) : 0.150
Stream size : 1.15 GiB (89%)
Language : English
Encoded date : UTC 2019-09-26 20:46:25
Tagged date : UTC 2019-09-26 20:46:25

Audio
ID : 2
Format : AAC
Format/Info : Advanced Audio Codec
Format profile : LC
Codec ID : 40
Duration : 2h 8mn
Bit rate mode : Variable
Bit rate : 152 Kbps
Maximum bit rate : 192 Kbps
Channel(s) : 2 channels
Channel positions : Front: L R
Sampling rate : 44.1 KHz
Compression mode : Lossy
Stream size : 139 MiB (11%)
Language : English
Encoded date : UTC 2019-09-26 20:46:25
Tagged date : UTC 2019-09-26 20:46:25

download

4downfiles

https://4downfiles.org/3kge0qg7362j

earn4files
https://earn4files.com/tezbrjq9au4h

fileup
https://fileup.cc/3b6sz8q32dxq

nitroflare
http://nitroflare.com/view/74E75FFF0C32F12

rapidgator
https://rapidgator.net/file/d647b812599de9cc634de7bb5027cdfe

uploadgig
https://uploadgig.com/file/download/36bFF6f4316490A5

Leave a Reply

Your email address will not be published. Required fields are marked *