WWE Monday Night RAW 2019 09 16 HDTV x264-ACES / 720p

WWE Monday Night RAW 2019 09 16 HDTV x264-ACES / 720p

This image has an empty alt attribute; its file name is RAW-2019-09-.png

WWE Monday Night RAW 2019 09 16 HDTV x264-ACES

General
Complete name : WWE.Monday.Night.RAW.2019.09.16.HDTV.x264-ACES.mkv
Format : Matroska
File size : 1.33 GiB
Duration : 2h 5mn
Overall bit rate : 1 518 Kbps
Movie name : WWE Monday Night RAW 2019 09 16
Writing application : no variable data
Writing library : no variable data

Video
ID : 1
Format : AVC
Format/Info : Advanced Video Codec
Format profile : [email protected]
Format settings, CABAC : Yes
Format settings, ReFrames : 5 frames
Codec ID : V_MPEG4/ISO/AVC
Duration : 2h 5mn
Width : 720 pixels
Height : 404 pixels
Display aspect ratio : 16:9
Frame rate : 50.000 fps
Color space : YUV
Chroma subsampling : 4:2:0
Bit depth : 8 bits
Scan type : Progressive
Writing library : x264 core 158 r2984 3759fcb
Language : English
Matrix coefficients : BT.709-5, BT.1361, IEC 61966-2-4 709, SMPTE RP177

Audio
ID : 2
Format : AAC
Format/Info : Advanced Audio Codec
Format profile : LC
Codec ID : A_AAC
Duration : 2h 5mn
Channel(s) : 2 channels
Channel positions : Front: L R
Sampling rate : 48.0 KHz
Compression mode : Lossy
Delay relative to video : -20ms
Language : English

4downfiles

https://4downfiles.org/x8h09fq94xys

earn4files
https://earn4files.com/h6k03gmyls44

fileup
https://fileup.cc/wi9ewth3cd71

nitroflare
http://nitroflare.com/view/529ABCA2894FC1D

rapidgator
https://rapidgator.net/file/dd1e29a3e1e8dc57cf26fc5d07ef030e

uploadgig
https://uploadgig.com/file/download/10558265d42edCA6

WWE Monday Night RAW 2019 09 16 720p HDTV x264-ACES

General
Complete name : WWE.Monday.Night.RAW.2019.09.16.720p.HDTV.x264-ACES.mkv
Format : Matroska
File size : 3.73 GiB
Duration : 2h 8mn
Overall bit rate : 4 170 Kbps
Movie name : WWE Monday Night RAW 2019 09 16
Writing application : no_variable_data
Writing library : no_variable_data

Video
ID : 1
Format : AVC
Format/Info : Advanced Video Codec
Format profile : [email protected]
Format settings, CABAC : Yes
Format settings, ReFrames : 5 frames
Codec ID : V_MPEG4/ISO/AVC
Duration : 2h 8mn
Bit rate : 3 767 Kbps
Width : 1 280 pixels
Height : 720 pixels
Display aspect ratio : 16:9
Frame rate : 50.000 fps
Color space : YUV
Chroma subsampling : 4:2:0
Bit depth : 8 bits
Scan type : Progressive
Bits/(Pixel*Frame) : 0.082
Stream size : 3.37 GiB (90%)
Writing library : x264 core 158 r2984 3759fcb
Language : English
Matrix coefficients : BT.709-5, BT.1361, IEC 61966-2-4 709, SMPTE RP177

Audio
ID : 2
Format : MPEG Audio
Format version : Version 1
Format profile : Layer 2
Codec ID : A_MPEG/L2
Codec ID/Hint : MP2
Duration : 2h 8mn
Bit rate mode : Constant
Bit rate : 320 Kbps
Channel(s) : 2 channels
Sampling rate : 48.0 KHz
Compression mode : Lossy
Delay relative to video : -20ms
Stream size : 293 MiB (8%)
Language : English

4downfiles

https://4downfiles.org/1hwaf3oh0r4v

earn4files
https://earn4files.com/vemwhw6zy1jk

fileup
https://fileup.cc/jlkgqcxje4c2

nitroflare
http://nitroflare.com/view/07D6D57D9D6D251

rapidgator
https://rapidgator.net/file/59a8b85115f9f75e24bf675c148f0b85

uploadgig
https://uploadgig.com/file/download/c775b233fb9F40A0

One Comment on “WWE Monday Night RAW 2019 09 16 HDTV x264-ACES / 720p”

Leave a Reply

Your email address will not be published. Required fields are marked *