WWE Monday Night RAW 2019.09.16 1080p HDTV x264-ACES

 WWE Monday Night RAW 2019.09.16 1080p HDTV x264-ACES

download WWE Monday Night RAW 2019.09.16 1080p HDTV x264-ACES

WWE Monday Night RAW

WWE.Monday.Night.RAW.2019.09.16.1080p.HDTV.x264-ACES
20190917

General
Complete name : WWE.Monday.Night.RAW.2019.09.16.1080p.HDTV.x264-ACES.mkv
Format : Matroska
Format version : Version 4 / Version 2
File size : 7.06 GiB
Duration : 2 h 5 min
Overall bit rate : 8 075 kb/s
Movie name : WWE Monday Night RAW 2019 09 16
Writing application : no variable data
Writing library : no variable data

Video
ID : 1
Format : AVC
Format/Info : Advanced Video Codec
Format profile : [email protected]
Format settings : CABAC / 4 Ref Frames
Format settings, CABAC : Yes
Format settings, ReFrames : 4 frames
Codec ID : V_MPEG4/ISO/AVC
Duration : 2 h 5 min
Bit rate : 7 594 kb/s
Width : 1 920 pixels
Height : 1 080 pixels
Display aspect ratio : 16:9
Frame rate mode : Constant
Frame rate : 50.000 FPS
Color space : YUV
Chroma subsampling : 4:2:0
Bit depth : 8 bits
Scan type : Progressive
Bits/(Pixel*Frame) : 0.073
Stream size : 6.64 GiB (94%)
Writing library : x264 core 158 r2984 3759fcb
Encoding settings : cabac=1 / ref=4 / deblock=1:0:0 / analyse=0x3:0x113 / me=hex / subme=8 / psy=1 / psy_rd=1.00:0.00 / mixed_ref=1 / me_range=16 / chroma_me=1 / trellis=2 / 8x8dct=1 / cqm=0 / deadzone=21,11 / fast_pskip=1 / chroma_qp_offset=-2 / threads=6 / lookahead_threads=1 / sliced_threads=0 / nr=0 / decimate=1 / interlaced=0 / bluray_compat=0 / constrained_intra=0 / bframes=3 / b_pyramid=2 / b_adapt=1 / b_bias=0 / direct=3 / weightb=1 / open_gop=0 / weightp=2 / keyint=250 / keyint_min=25 / scenecut=40 / intra_refresh=0 / rc_lookahead=50 / rc=crf / mbtree=1 / crf=23.0 / qcomp=0.60 / qpmin=0 / qpmax=69 / qpstep=4 / ip_ratio=1.40 / aq=1:1.00
Language : English
Default : Yes
Forced : No
Color range : Limited
Matrix coefficients : BT.709

Audio
ID : 2
Format : MPEG Audio
Format version : Version 1
Format profile : Layer 2
Codec ID : A_MPEG/L2
Codec ID/Hint : MP2
Duration : 2 h 5 min
Bit rate mode : Constant
Bit rate : 320 kb/s
Channel(s) : 2 channels
Sampling rate : 48.0 kHz
Compression mode : Lossy
Stream size : 286 MiB (4%)
Language : English
Default : Yes
Forced : No

Single Links

https://rapidgator.net/file/d08343e1c6db396e2629d744fafa1c36/WWE.Monday.Night.RAW.2019.09.16.1080p.HDTV.x264-ACES.mkv
https://uploadgig.com/file/download/a6F64aeAB37D83d4/WWE.Monday.Night.RAW.2019.09.16.1080p.HDTV.x264-ACES.mkv
http://nitroflare.com/view/19E279477275085/WWE.Monday.Night.RAW.2019.09.16.1080p.HDTV.x264-ACES.mkv

======================1GB MULTI LINKS=========================

===Nitroflare===
http://nitroflare.com/view/201017716B5AA85/WWE.Monday.Night.RAW.2019.09.16.1080p.HDTV.x264-ACES.part1.rar http://nitroflare.com/view/0394EA47F950F22/WWE.Monday.Night.RAW.2019.09.16.1080p.HDTV.x264-ACES.part2.rar http://nitroflare.com/view/CAF3C2685FD5ADE/WWE.Monday.Night.RAW.2019.09.16.1080p.HDTV.x264-ACES.part3.rar http://nitroflare.com/view/066563860A6E382/WWE.Monday.Night.RAW.2019.09.16.1080p.HDTV.x264-ACES.part4.rar http://nitroflare.com/view/E4C676922E7E81F/WWE.Monday.Night.RAW.2019.09.16.1080p.HDTV.x264-ACES.part5.rar http://nitroflare.com/view/E0FB4CEFCCE8162/WWE.Monday.Night.RAW.2019.09.16.1080p.HDTV.x264-ACES.part6.rar http://nitroflare.com/view/B0E9DB8D61CBC55/WWE.Monday.Night.RAW.2019.09.16.1080p.HDTV.x264-ACES.part7.rar http://nitroflare.com/view/130665A9CFB78CC/WWE.Monday.Night.RAW.2019.09.16.1080p.HDTV.x264-ACES.part8.rar

===Rapidgator====
https://rapidgator.net/file/8e08e8b6b0d94e25247a41c4409d6c6e/WWE.Monday.Night.RAW.2019.09.16.1080p.HDTV.x264-ACES.part1.rar.html https://rapidgator.net/file/bdfe025ef703ce77c2e76826b39fa336/WWE.Monday.Night.RAW.2019.09.16.1080p.HDTV.x264-ACES.part2.rar.html https://rapidgator.net/file/9675aaf57db11f138bf40592bfe9721e/WWE.Monday.Night.RAW.2019.09.16.1080p.HDTV.x264-ACES.part3.rar.html https://rapidgator.net/file/7159008e2690062fe6ec51551b997bdb/WWE.Monday.Night.RAW.2019.09.16.1080p.HDTV.x264-ACES.part4.rar.html https://rapidgator.net/file/ab01b6f04a2651a5602ea3f7ada05dca/WWE.Monday.Night.RAW.2019.09.16.1080p.HDTV.x264-ACES.part5.rar.html https://rapidgator.net/file/9d9e8fb7269549433fa0c06df78f8a82/WWE.Monday.Night.RAW.2019.09.16.1080p.HDTV.x264-ACES.part6.rar.html https://rapidgator.net/file/644d0de6471c673a3970895f0e574a4c/WWE.Monday.Night.RAW.2019.09.16.1080p.HDTV.x264-ACES.part7.rar.html https://rapidgator.net/file/20b7571b03df68d7beef8ab1e3f0e9e2/WWE.Monday.Night.RAW.2019.09.16.1080p.HDTV.x264-ACES.part8.rar.html

===Uploadigig===
https://uploadgig.com/file/download/00A0A3d080C80915/WWE.Monday.Night.RAW.2019.09.16.1080p.HDTV.x264-ACES.part1.rar https://uploadgig.com/file/download/b87a5F6bC5c02a21/WWE.Monday.Night.RAW.2019.09.16.1080p.HDTV.x264-ACES.part2.rar https://uploadgig.com/file/download/224Db292D9a7091f/WWE.Monday.Night.RAW.2019.09.16.1080p.HDTV.x264-ACES.part3.rar https://uploadgig.com/file/download/C78b128CC18dB22f/WWE.Monday.Night.RAW.2019.09.16.1080p.HDTV.x264-ACES.part4.rar https://uploadgig.com/file/download/Ba7e1e32E11de27F/WWE.Monday.Night.RAW.2019.09.16.1080p.HDTV.x264-ACES.part5.rar https://uploadgig.com/file/download/4dDD5ca8F579126e/WWE.Monday.Night.RAW.2019.09.16.1080p.HDTV.x264-ACES.part6.rar https://uploadgig.com/file/download/Daf633e70901F482/WWE.Monday.Night.RAW.2019.09.16.1080p.HDTV.x264-ACES.part7.rar https://uploadgig.com/file/download/aEEa3b23f50a9BEe/WWE.Monday.Night.RAW.2019.09.16.1080p.HDTV.x264-ACES.part8.rar

One Comment on “WWE Monday Night RAW 2019.09.16 1080p HDTV x264-ACES”

Leave a Reply

Your email address will not be published. Required fields are marked *