WWE Monday Night RAW 2019 05 27 720p HDTV x264-KYR

WWE Monday Night RAW 2019 05 27 720p HDTV x264-KYR
WWE Monday Night RAW 2019 05 27 720p HDTV x264-KYR
³
   ³ rel. dateú[ 2019-05-28                     formatú[ x264  
   ³    sourceú[ HDTV                         crfú[23  
   ³   runtimeú[ 02:06:38.257               bitrateú[4 528 Kbps  
   ³  filesizeú[ 4.35 GiB                   resolu.ú[ 1280x720 
   ³ rar countú[ 94*50MBB                        framesú[59.940 
   ³          ú[                            audioú[6ch 384 Kbps AC-3
Size4.35 GB

General
Complete name : WWE.Monday.Night.RAW.2019.05.27.720p.HDTV.x264-KYR.mkv
Format : Matroska
Format version : Version 4
File size : 4.35 GiB
Duration : 2 h 6 min
Overall bit rate : 4 916 kb/s
Encoded date : UTC 2019-05-28 07:14:13
Writing application : mkvmerge v8.8.0 (‘Wind at my back’) 64bit
Writing library : libebml v1.3.3 + libmatroska v1.4.4

Video
ID : 1
Format : AVC
Format/Info : Advanced Video Codec
Format profile : [email protected]
Format settings : CABAC / 5 Ref Frames
Format settings, CABAC : Yes
Format settings, Reference : 5 frames
Codec ID : V_MPEG4/ISO/AVC
Duration : 2 h 6 min
Bit rate : 4 528 kb/s
Width : 1 280 pixels
Height : 720 pixels
Display aspect ratio : 16:9
Frame rate mode : Constant
Frame rate : 59.940 (60000/1001) FPS
Color space : YUV
Chroma subsampling : 4:2:0
Bit depth : 8 bits
Scan type : Progressive
Bits/(Pixel*Frame) : 0.082
Stream size : 4.01 GiB (92%)
Writing library : x264 core 157 r2969 d4099dd
Default : Yes
Forced : No
Color range : Limited
Matrix coefficients : BT.709

Audio
ID : 2
Format : AC-3
Format/Info : Audio Coding 3
Commercial name : Dolby Digital
Codec ID : A_AC3
Duration : 2 h 6 min
Bit rate mode : Constant
Bit rate : 384 kb/s
Channel(s) : 6 channels
Channel layout : L R C LFE Ls Rs
Sampling rate : 48.0 kHz
Frame rate : 31.250 FPS (1536 SPF)
Bit depth : 16 bits
Compression mode : Lossy
Stream size : 348 MiB (8%)
Service kind : Complete Main
Default : Yes
Forced : No

filetransfer [recommended by me]

https://filetransfer.io/data-package/9wcwQTgu

https://bayfiles.com/g8s5h7t5ne
https://file.bz/Qdq0hbt5n7
https://openload.co/f/4PdDWsfxMGs
https://turbobit.net/bstvj1wsq074.html

https://bitster.cz/file/936654
http://dl.free.fr/wJNsZgJ43
https://uploadgig.com/file/download/2Baa865faB39989c

https://filerio.in/1izddbbcbhi5
https://filescdn.net/7mm0aefrgo3m
http://nitroflare.com/view/736998B4E181D35
https://rg.to/file/a3c3301b45ccafc214069d6c9e828eb0

https://1fichier.com/?9xq2kywhsmyx6ogsddjf
https://multiup.org/download/95343a042d43c23b00c850628b949874

2 Comments on “WWE Monday Night RAW 2019 05 27 720p HDTV x264-KYR”

Leave a Reply

Your email address will not be published. Required fields are marked *