WWE.Monday.Night.Raw.2019.03.25.HDTV.HEVC.x265-WH

WWE.Monday.Night.Raw.2019.03.25.HDTV.HEVC.x265-WH

WWE.Monday.Night.Raw.2019.03.25.HDTV.HEVC.x265-WH

General
Complete name                    :WWE.Monday.Night.Raw.2019.03.25.HDTV.HEVC.x265-WH.mp4
Format                          : MPEG-4
Format profile                  : QuickTime
Codec ID                        : qt 
File size                        : 1.22 GiB
Duration                        : 2h 6mn
Overall bit rate                : 1 383 Kbps
Writing application              : Lavf55.33.100

Video
ID                              : 1
Format                          : hev1
Codec ID                        : hev1
Duration                        : 2h 6mn
Bit rate mode                    : Variable
Bit rate                        : 1 249 Kbps
Width                            : 712 pixels
Height                          : 400 pixels
Display aspect ratio            : 16:9
Frame rate mode                  : Constant
Frame rate                      : 25.000 fps
Bits/(Pixel*Frame)              : 0.175
Stream size                      : 1.10 GiB (90%)
Language                        : English

Audio
ID                              : 2
Format                          : AAC
Format/Info                      : Advanced Audio Codec
Format profile                  : LC
Codec ID                        : 40
Duration                        : 2h 6mn
Bit rate mode                    : Constant
Bit rate                        : 128 Kbps
Channel(s)                      : 2 channels
Channel positions                : Front: L R
Sampling rate                    : 44.1 KHz
Compression mode                : Lossy
Stream size                      : 116 MiB (9%)
Language                        : English

ONE LINK DOWNLOAD

1fichier.com

https://shrt10.com/HICz

anonfile.com

https://shrt10.com/MO0zqjt

ddl.to

https://shrt10.com/841VNRqS

dl.free.fr

https://shrt10.com/R7evWOjZ

filefactory.com

https://shrt10.com/QOlgmiK

filerio.in

https://shrt10.com/UfYR4

filescdn.net

https://shrt10.com/7kCZ

filestore.to

https://shrt10.com/9Vz0WgT

openload.co

https://shrt10.com/4Hvu0REY

rapidgator.net

https://shrt10.com/4451OlS

uploadgig.com

https://shrt10.com/zsy5aP3

uptobox.com

https://shrt10.com/vstIUQ

About PH.M.H

[Wrestling Best Uploader]

View all posts by PH.M.H

Leave a Reply

Your email address will not be published. Required fields are marked *