WWE Main Event 2020 05 27 1080p WEB h264-W4F

WWE Main Event 2020 05 27 1080p WEB h264-W4F

WWE Main Event 2020 05 27 1080p

General
Complete name : WWE.Main.Event.2020.05.27.1080p.WEB.h264-W4F.mkv
Format : Matroska
Format version : Version 4
File size : 1.87 GiB
Duration : 44 min 36 s
Overall bit rate : 5 989 kb/s

Video
Format : AVC
Duration : 44 min 36 s
Bit rate : 5 923 kb/s
Width : 1 920 pixels
Height : 1 080 pixels
Display aspect ratio : 16:9
Frame rate mode : Constant
Frame rate : 29.970 (30000/1001) FPS
Color space : YUV
Chroma subsampling : 4:2:0
Bit depth : 8 bits
Scan type : Progressive
Bits/(Pixel*Frame) : 0.095
Stream size : 1.85 GiB (99%)
Default : Yes
Forced : No

Audio
Commercial name : HE-AAC
Format settings : Explicit
Codec ID : A_AAC-2
Duration : 44 min 36 s
Bit rate : 64.0 kb/s
Channel(s) : 2 channels
Channel layout : L R
Sampling rate : 48.0 kHz
Frame rate : 23.438 FPS (2048 SPF)
Compression mode : Lossy
Stream size : 20.4 MiB (1%)

One Comment on “WWE Main Event 2020 05 27 1080p WEB h264-W4F”

Leave a Reply

Your email address will not be published. Required fields are marked *