WWE Main Event 2019 10 10 404p / 1080p

WWE Main Event 2019 10 10 404p / 1080p

dOWNLOAD WWE Main Event 2019 10 10 404p / 1080p

WWE Main Event 2019 10 10 404p / 1080p

WWE Main Event 2019 10 10 1080p WEBRip h264-HEEL

General
Complete name :WWE.Main.Event.2019.10.10.1080p.WEBRip.h264-HEEL.mp4
Format : MPEG-4
Format profile : Base Media
Codec ID : isom (isom/iso2/avc1/mp41)
File size : 1.86 GiB
Duration : 45 min 28 s
Overall bit rate mode : Variable
Overall bit rate : 5 841 kb/s
Writing application : Lavf58.30.100
Video
ID : 1
Format : AVC
Format/Info : Advanced Video Codec
Format profile : [email protected]
Format settings : CABAC / 5 Ref Frames
Format settings, CABAC : Yes
Format settings, Reference : 5 frames
Codec ID : avc1
Codec ID/Info : Advanced Video Coding
Duration : 45 min 28 s
Bit rate mode : Variable
Bit rate : 5 773 kb/s
Maximum bit rate : 6 000 kb/s
Width : 1 920 pixels
Height : 1 080 pixels
Display aspect ratio : 16:9
Frame rate mode : Variable
Frame rate : 25.000 FPS
Minimum frame rate : 12.933 FPS
Maximum frame rate : 25.000 FPS
Color space : YUV
Chroma subsampling : 4:2:0
Bit depth : 8 bits
Scan type : Progressive
Bits/(Pixel*Frame) : 0.111
Stream size : 1.83 GiB (99%)
Codec configuration box : avcC
Audio
ID : 2
Format : AAC LC SBR
Commercial name : HE-AAC
Format settings : Implicit
Codec ID : mp4a-40-2
Duration : 45 min 28 s
Bit rate mode : Constant
Bit rate : 62.7 kb/s
Channel(s) : 2 channels
Channel layout : L R
Sampling rate : 48.0 kHz
Frame rate : 23.438 FPS (2048 SPF)
Compression mode : Lossy
Stream size : 20.4 MiB (1%)
Title : [email protected]
Default : Yes
Alternate group : 1

WWE Main Event 10th Oct 2019 WEBRip h264-TJ

DescriptionHawkins & Ryder vs The Revival / Cesaro vs Cedric Alexander

Title: WWE.Main.Event.10th.Oct.2019.WEBRip.h264-TJ
(All credit and thanks to HEEL)

Video:
Duration: 00:45:28
Container: MP4
Format: AVC
Format Profile: [email protected]
Resolution: 720×404 (16:9)
Frame Rate: 25 fps
Bit Rate: 1400 Kbps

Audio:
Format: AAC
Sample Rate: 48 kHz
Bit Rate: 64.4 Kbps
Channels: 2 (Front: L R)
download

All dOWNLOAD liNKs AT COMMENTs

One Comment on “WWE Main Event 2019 10 10 404p / 1080p”

Leave a Reply

Your email address will not be published. Required fields are marked *