WWE Main Event 2019 05 29 1080p WEB h264-W4F

WWE Main Event 2019 05 29 1080p WEB h264-W4F
WWE Main Event 2019 05 29 1080p WEB h264-W4F

General
Complete name : WWE.Main.Event.2019.05.29.1080p.WEB.h264-W4F.mkv
Format : Matroska
Format version : Version 4
File size : 1.82 GiB
Duration : 43 min 59 s
Overall bit rate : 5 936 kb/s
Encoded date : UTC 2019-05-31 02:15:30
Writing application : mkvmerge v33.1.0 (‘Primrose’) 64-bit
Writing library : libebml v1.3.7 + libmatroska v1.5.0

Video
ID : 1
Format : AVC
Format/Info : Advanced Video Codec
Format profile : [email protected]
Format settings : CABAC / 4 Ref Frames
Format settings, CABAC : Yes
Format settings, Reference : 4 frames
Codec ID : V_MPEG4/ISO/AVC
Duration : 43 min 59 s
Bit rate : 5 870 kb/s
Width : 1 920 pixels
Height : 1 080 pixels
Display aspect ratio : 16:9
Frame rate mode : Constant
Frame rate : 29.970 (30000/1001) FPS
Color space : YUV
Chroma subsampling : 4:2:0
Bit depth : 8 bits
Scan type : Progressive
Bits/(Pixel*Frame) : 0.094
Stream size : 1.80 GiB (99%)
Language : English
Default : Yes
Forced : No

Audio
ID : 2
Format : AAC LC SBR
Format/Info : Advanced Audio Codec Low Complexity with Spectral Band Replication
Commercial name : HE-AAC
Format settings : Explicit
Codec ID : A_AAC-2
Duration : 43 min 59 s
Bit rate : 64.0 kb/s
Channel(s) : 2 channels
Channel layout : L R
Sampling rate : 48.0 kHz
Frame rate : 23.438 FPS (2048 SPF)
Compression mode : Lossy
Stream size : 20.1 MiB (1%)
Default : Yes
Forced : No

https://1fichier.com/?2nxs6oi0ogq5wvle6tqq
https://anonfile.com/Ffda92t6nf
https://bayfiles.com/k6e699t6nc
https://bitster.cz/file/0ca8d5
https://ddl.to/kqfx22eml235
http://dl.free.fr/gkXPfscoC
https://file.bz/hfe890tcn7
http://www.filefactory.com/file/6trquae9oyj3
https://filerio.in/pewh75lkauf7
https://filescdn.net/1pyycfmvxrs4
https://multiup.org/download/b28921d4fcc704d9f512ea9d7f2e5e2f
http://nitroflare.com/view/64ACA00C09E778B
https://openload.co/f/GIY3jY_OQvw
https://rg.to/file/f13c70d530dbc7f4c843fba778d1e576
https://turbobit.net/nyzzveyksvpj.html

Leave a Reply

Your email address will not be published. Required fields are marked *